<?xml version="1.0" standalone="no"?>
<!DOCTYPE svg PUBLIC "-//W3C//DTD SVG 1.1//EN" "http://www.w3.org/Graphics/SVG/1.1/DTD/svg11.dtd" >
<svg xmlns="http://www.w3.org/2000/svg" xmlns:xlink="http://www.w3.org/1999/xlink" version="1.1">
<metadata>
Created by FontForge 20170731 at Thu Jan 14 01:59:43 1904
 By Aleksey,,,
(c) Copyright 2005 by Tong Duc Thinh. All Rights Reserved
</metadata>
<defs>
<font id="SFUAGBuchStencilBQMedium" horiz-adv-x="604" >
  <font-face 
    font-family="SFU AGBuchStencilBQ"
    font-weight="500"
    font-stretch="normal"
    units-per-em="1000"
    panose-1="0 0 5 0 0 0 0 0 0 0"
    ascent="800"
    descent="-200"
    x-height="542"
    cap-height="706"
    bbox="-133 -250 1037 1175"
    underline-thickness="50"
    underline-position="-175"
    unicode-range="U+0020-F002"
  />
<missing-glyph horiz-adv-x="500" 
d="M63 0v761h375v-761h-375zM125 63h250v636h-250v-636z" />
    <glyph glyph-name=".notdef" horiz-adv-x="500" 
d="M63 0v761h375v-761h-375zM125 63h250v636h-250v-636z" />
    <glyph glyph-name=".null" horiz-adv-x="0" 
 />
    <glyph glyph-name="nonmarkingreturn" horiz-adv-x="292" 
 />
    <glyph glyph-name="space" unicode=" " horiz-adv-x="292" 
 />
    <glyph glyph-name="exclam" unicode="!" horiz-adv-x="292" 
d="M92 0v147h148v-147h-148zM92 468v238h154v-238l-28 -267h-103z" />
    <glyph glyph-name="dollar" unicode="$" horiz-adv-x="583" 
d="M22 217h140q-3 -41 23 -69q8 -9 14 -13q9 -7 24 -12l-1 -130q-43 8 -78 24q-88 41 -113 134q-8 29 -9 66zM223 695l-1 -124q-25 -7 -36 -25t-11 -37q0 -51 73 -73v359h80l1 -383q36 -12 71 -23q40 -14 67 -33q76 -53 76 -152q0 -72 -34 -122q-18 -26 -43 -44
q-45 -33 -112 -45v132q16 8 20 12q28 21 28 55q-1 51 -74 75v-373h-80v399q-18 5 -61 20q-149 51 -148 184q0 40 11 71q38 110 173 127zM354 563v130q95 -21 135 -84q26 -42 35 -119l-130 -6q-2 12 -3 24q-5 21 -15 36q-6 8 -22 19z" />
    <glyph glyph-name="percent" unicode="%" horiz-adv-x="875" 
d="M174 700v-90q-55 -17 -55 -131q0 -120 41 -141q7 -4 14 -5v-90q-31 4 -51 12q-37 16 -61 50q-40 58 -40 164q0 117 48 176q21 25 47 38t57 17zM200 244l1 89q22 9 35 33q19 35 19 107q0 47 -8 81q-12 50 -47 57l1 89q64 -3 102 -45q50 -55 50 -173q0 -7 -2 -38
q-3 -44 -13 -76q-20 -68 -68 -100q-29 -19 -70 -24zM251 0l283 690h88l-284 -690h-87zM673 447v-90q-20 -5 -33 -26q-21 -34 -21 -102q0 -60 7 -87q3 -14 18 -43q10 -12 29 -20v-88q-24 4 -29 5q-24 6 -43 18q-80 50 -80 204q0 126 58 185q37 38 94 44zM699 360l1 87
q64 -2 102 -45q50 -57 50 -174q0 -111 -40 -171q-37 -55 -113 -65l1 90q18 5 27 20q27 35 27 113q0 59 -9 92.5t-30 46.5q-2 1 -16 6z" />
    <glyph glyph-name="ampersand" unicode="&#x26;" horiz-adv-x="625" 
d="M290 693v-117q-12 -3 -17 -6q-21 -13 -21 -42q0 -25 29 -76q21 9 29 15q40 24 41 64q0 12 -8 24q-2 4 -10 11t-17 10v117q40 -3 71 -20q87 -47 87 -145q0 -53 -33 -99q-27 -38 -96 -74l84 -116q25 50 29 108l132 -1q-15 -63 -21 -81q-19 -59 -55 -115q15 -11 28 -17
q27 -13 51 -14q4 0 15 2v-122q-22 -2 -39 -2q-77 0 -141 57q-76 -58 -166 -65v122q41 4 83 30l-119 162q-7 -4 -20.5 -13.5t-21.5 -18.5q-16 -17 -23 -37q-5 -14 -5 -31q0 -48 42 -76q5 -3 37 -16v-122q-25 2 -79 15q-61 23 -98.5 78t-37.5 121q0 97 87 163q11 9 57 36
q-38 68 -38 125q0 54 30.5 96t80.5 59q26 9 53 11z" />
    <glyph glyph-name="parenleft" unicode="(" horiz-adv-x="354" 
d="M221 706h128q-22 -36 -32 -56q-20 -38 -40 -87q-47 -118 -56 -237q-3 -41 -3 -78q0 -199 85 -355q13 -24 46 -69h-134q-45 64 -70 112q-81 152 -81 328q0 162 74 308q39 76 83 134z" />
    <glyph glyph-name="parenright" unicode=")" horiz-adv-x="354" 
d="M5 706h132q37 -51 61 -92q64 -110 84 -236q7 -43 7 -103q0 -168 -78 -321q-16 -32 -29 -53q-23 -40 -51 -76h-126q35 59 65 130q65 154 65 325q0 267 -130 426z" />
    <glyph glyph-name="asterisk" unicode="*" horiz-adv-x="396" 
d="M18 551l26 79l107 -38v114h85v-114l107 38l26 -79l-107 -37l68 -90l-68 -51l-70 94l-68 -94l-68 51l68 90z" />
    <glyph glyph-name="plus" unicode="+" horiz-adv-x="667" 
d="M386 0h-103v240h-241v102h241v241h103v-241h239v-102h-239v-240z" />
    <glyph glyph-name="comma" unicode="," horiz-adv-x="250" 
d="M125 0h-76v150h148v-131q0 -40 -10 -68q-33 -92 -147 -121v55q73 36 85 115z" />
    <glyph glyph-name="hyphen" unicode="-" horiz-adv-x="375" 
d="M41 379h293v-120h-293v120z" />
    <glyph glyph-name="hyphen" unicode="&#x2010;" horiz-adv-x="375" 
d="M41 379h293v-120h-293v120z" />
    <glyph glyph-name="period" unicode="." horiz-adv-x="250" 
d="M50 0v150h148v-150h-148z" />
    <glyph glyph-name="slash" unicode="/" horiz-adv-x="458" 
d="M20 0l294 706h126l-294 -706h-126z" />
    <glyph glyph-name="zero" unicode="0" horiz-adv-x="562" 
d="M268 703v-119q-29 -7 -45 -19q-61 -46 -61 -206q0 -72 10 -124q11 -55 33 -85t63 -39v-121q-103 6 -162 73q-62 71 -77 215q-4 38 -4 81q0 108 29 186q15 38 42 72q41 51 101 72q34 12 71 14zM294 -10v122q23 5 38 15q48 33 60 117q8 55 8 114q0 133 -41 188
q-24 32 -65 38v120q33 -1 53 -6q72 -17 116 -70q73 -87 73 -272q0 -31 -3 -69q-5 -67 -20 -114q-32 -102 -105 -147q-46 -28 -114 -36z" />
    <glyph glyph-name="one" unicode="1" horiz-adv-x="562" 
d="M77 468v106q73 -5 116 17q8 4 17 11v-134h-133zM257 691h124v-691h-144v632q16 31 20 59z" />
    <glyph glyph-name="two" unicode="2" horiz-adv-x="562" 
d="M42 0v125h475v-125h-475zM268 701v-130q-85 -9 -85 -121v-15l-141 6q4 52 15 93q23 82 84 125q54 37 127 42zM295 570l1 131q16 -1 60 -10q148 -42 148 -202q0 -64 -30 -124q-42 -84 -201 -214h-190q29 25 89 74q86 70 122 110q71 80 71 146q0 51 -32 73q-13 9 -38 16z
" />
    <glyph glyph-name="three" unicode="3" horiz-adv-x="562" 
d="M36 240l136 5q-5 -99 61 -128q14 -6 34 -9l-1 -118q-34 0 -77 13q-109 33 -141 144q-9 32 -12 93zM267 701l-1 -115q-19 -4 -28 -9q-21 -10 -34 -29q-18 -27 -18 -84l-134 8q2 125 71 181q32 26 74 38q25 7 70 10zM227 306v118q20 -3 38 -3q52 0 79 29q20 23 20 54
q0 48 -40 70q-12 7 -32 10l1 118q36 -2 65 -10q57 -15 92 -50q49 -49 49 -128q0 -85 -67 -130q-9 -5 -20 -11q27 -5 53 -24q62 -45 62 -139q0 -67 -38 -121t-101 -79q-31 -12 -96 -20l1 118q51 9 74 47q16 26 16 57q0 36 -21 63q-29 35 -89 35q-15 0 -46 -4z" />
    <glyph glyph-name="four" unicode="4" horiz-adv-x="562" 
d="M21 292l259 360v-195l-136 -192h136v-117h-259v144zM306 0v689h136v-424h93v-117h-93v-148h-136z" />
    <glyph glyph-name="five" unicode="5" horiz-adv-x="562" 
d="M19 206l141 7q1 -22 7 -39q19 -56 96 -65l-1 -118q-42 1 -69 8q-55 13 -96 47q-63 53 -78 160zM47 309l40 227h122l-21 -96q31 19 75 30l-1 -113q-17 -2 -30 -6q-27 -8 -43 -24q-4 -4 -12 -18h-130zM91 562l21 127h392l-14 -127h-399zM290 356v118q15 1 36 0
q62 -4 111 -39q26 -18 47 -50q41 -61 41 -141q0 -55 -18 -102q-54 -141 -217 -150v120q45 11 70 46t24 82q-1 44 -23 76q-8 12 -24.5 22.5t-46.5 17.5z" />
    <glyph glyph-name="six" unicode="6" horiz-adv-x="562" 
d="M278 699v-115q-20 -5 -32 -11q-22 -11 -38 -33q-36 -49 -41 -135q6 8 20 22q51 49 132 49q60 0 107 -26q53 -29 82 -88q26 -54 26 -119q0 -33 -9 -69q-43 -173 -220 -183v119q16 4 51 22q45 36 45 108q0 65 -42 96q-29 23 -68 22q-24 0 -44 -8q-69 -26 -68 -114
q1 -81 55 -111q16 -9 44 -15v-119q-39 3 -65 10q-49 15 -87 50q-91 85 -91 288q0 209 102 301q35 31 78 46q23 8 63 13zM305 587v114q91 -2 144 -43q20 -16 38 -43q28 -42 34 -96l-132 -7q-8 43 -31 59q-7 6 -17.5 9t-35.5 7z" />
    <glyph glyph-name="seven" unicode="7" horiz-adv-x="562" 
d="M49 561v127h457v-127h-457zM335 535l144 -1q-95 -103 -151 -275q-18 -56 -30 -127q-7 -44 -9 -82q-1 -22 -1 -50h-153q6 76 13 121q25 148 112 300q45 78 75 114z" />
    <glyph glyph-name="eight" unicode="8" horiz-adv-x="562" 
d="M268 702v-115q-86 -17 -86 -88q0 -30 16 -52q7 -9 13 -13q25 -20 67 -20q62 0 88 38q6 9 11 26q4 14 4 28q0 71 -87 81v115q93 -2 152 -50q66 -53 66 -143q0 -77 -45 -118q-10 -9 -30 -20q39 -22 62 -55q32 -46 32 -108q0 -51 -19 -92q-55 -119 -218 -126v115q16 3 51 16
q53 28 53 89q0 18 -6 36q-23 69 -112 69q-25 0 -50 -9q-68 -25 -68 -98q0 -36 21 -62q29 -36 85 -41v-115q-51 0 -96 16q-68 24 -105.5 77t-37.5 125q0 67 36 114q12 16 22 23q17 12 37 26q-29 16 -48 45q-25 39 -25 90q0 45 17 80q52 109 200 116z" />
    <glyph glyph-name="nine" unicode="9" horiz-adv-x="562" 
d="M258 700v-119q-50 -9 -74 -46q-22 -33 -22 -86q0 -26 7 -45q26 -71 101 -71q25 0 46 9q69 29 69 112q0 76 -52 110q-19 12 -48 17v119q117 -7 179 -90q18 -24 32 -56q32 -75 32 -206q0 -229 -123 -314q-41 -28 -120 -42v115q52 11 80 63q25 46 31 116q-60 -71 -151 -71
q-53 0 -98 22q-71 35 -100 114q-17 46 -17 98q0 78 35 139q38 67 106 95q31 13 87 17zM43 171l132 8q5 -50 43 -67q18 -8 40 -8v-114q-63 2 -106 21q-92 41 -109 160z" />
    <glyph glyph-name="colon" unicode=":" horiz-adv-x="292" 
d="M92 494h150v-147h-150v147zM92 0v148h150v-148h-150z" />
    <glyph glyph-name="semicolon" unicode=";" horiz-adv-x="292" 
d="M91 146h149v-120q0 -22 -2 -36q-13 -90 -88 -133q-22 -13 -65 -25v53q19 6 35 19q31 25 42 69q3 13 3 27h-74v146zM91 492h149v-146h-149v146z" />
    <glyph glyph-name="equal" unicode="=" horiz-adv-x="667" 
d="M667 146h-667v103h667v-103zM667 334h-667v103h667v-103z" />
    <glyph glyph-name="question" unicode="?" horiz-adv-x="562" 
d="M259 724v-123q-10 0 -24 -3q-37 -8 -58 -35q-11 -14 -18 -36t-7 -46l-143 1q8 109 50 161q60 74 200 81zM206 147h149v-147h-149v147zM284 600v124q154 -4 210 -113q23 -45 23 -99q0 -79 -60 -142q-18 -19 -41 -38q-11 -9 -33.5 -28.5t-29.5 -42.5q-4 -15 -6 -53l-141 1
q6 16 6 32q0 53 15 84q19 38 86 90q24 19 32 29q25 25 25 67q0 19 -9 39q-18 40 -77 50z" />
    <glyph glyph-name="A" unicode="A" horiz-adv-x="667" 
d="M-6 0l244 706h180l250 -706h-179l-46 150h-198l38 130h121l-51 168q-9 29 -24 103q-7 -33 -23 -99l-133 -452h-179z" />
    <glyph glyph-name="B" unicode="B" horiz-adv-x="667" 
d="M56 0v706h160v-706h-160zM241 0v131h54q107 0 136 17q41 24 41 75q0 23 -13 45q-24 40 -94 40h-124v127h101q45 0 63 4q23 5 37 21q17 20 17 44q0 23 -13 41q-21 30 -93 30h-112v131h140q14 0 31 -1q43 -3 74 -12q62 -18 96 -63t34 -102q0 -106 -99 -147q25 -12 43 -25
q75 -55 75 -149q0 -67 -37.5 -119.5t-101.5 -73.5q-44 -14 -102 -14h-153z" />
    <glyph glyph-name="C" unicode="C" horiz-adv-x="708" 
d="M372 719l-1 -131q-169 -17 -169 -244q0 -39 6 -69q22 -109 107 -144q25 -11 57 -12l-1 -134q-53 3 -82 10q-64 14 -116 52q-142 104 -142 307q0 130 64 224q93 136 277 141zM399 588v131q121 -3 199 -68q44 -36 66 -80q17 -33 25 -79l-160 -12q-4 16 -8 26q-7 18 -21 34
q-36 42 -101 48zM399 -15v134q26 3 45 10q60 22 82 81q6 15 8 37l166 -10q-7 -37 -14 -59q-15 -45 -43 -82q-76 -100 -244 -111z" />
    <glyph glyph-name="D" unicode="D" horiz-adv-x="688" 
d="M54 0v706h161v-706h-161zM240 0l1 131q35 -2 67 0q61 3 94 21q38 21 60.5 74.5t22.5 131.5q0 172 -108 205q-30 9 -137 12v131h103q21 0 47 -4q79 -12 135 -52q32 -23 60 -62q69 -96 69 -236q0 -98 -40 -181q-50 -105 -143 -144q-64 -27 -163 -27h-68z" />
    <glyph glyph-name="E" unicode="E" 
d="M55 0v706h160v-706h-160zM242 0v130h336v-130h-336zM242 309v127h304v-127h-304zM242 577v129h330v-129h-330z" />
    <glyph glyph-name="F" unicode="F" horiz-adv-x="583" 
d="M54 706h159v-706h-159v706zM240 297v126h290v-126h-290zM240 575v131h334v-131h-334z" />
    <glyph glyph-name="G" unicode="G" horiz-adv-x="750" 
d="M372 724l-1 -134q-19 -1 -35 -6q-51 -15 -84.5 -57.5t-43.5 -96.5q-6 -30 -6 -69q0 -160 86 -217q32 -21 84 -25l-1 -137q-146 -4 -231 78q-104 101 -104 286q0 151 72 248q93 125 264 130zM384 265v129h317l-5 -394h-112l-9 85q-14 -21 -41 -43q-53 -45 -136 -57l1 133
q30 5 37 7q27 7 51 24q49 34 73 116h-176zM398 590l1 135q96 -2 169 -43q93 -53 122 -157q4 -15 8 -40l-154 -9q-13 36 -25 54q-35 51 -121 60z" />
    <glyph glyph-name="H" unicode="H" horiz-adv-x="688" 
d="M55 0v706h160v-706h-160zM241 306v132h231v268h159v-706h-159v306h-231z" />
    <glyph glyph-name="I" unicode="I" horiz-adv-x="271" 
d="M55 0v706h159v-706h-159z" />
    <glyph glyph-name="J" unicode="J" horiz-adv-x="521" 
d="M5 275h154q-2 -91 6 -111q13 -34 60 -42v-136q-52 5 -82 14q-72 22 -106 74q-32 49 -32 148v53zM252 -13v136q64 9 64 82v501h159v-489q0 -103 -45 -155q-30 -35 -67 -51q-52 -23 -111 -24z" />
    <glyph glyph-name="K" unicode="K" horiz-adv-x="667" 
d="M55 0v706h160v-706h-160zM240 293v174l223 239h206l-323 -320l339 -386h-198z" />
    <glyph glyph-name="L" unicode="L" horiz-adv-x="562" 
d="M56 0v706h160v-706h-160zM241 0v132h310v-132h-310z" />
    <glyph glyph-name="M" unicode="M" horiz-adv-x="833" 
d="M56 0v706h149v-706h-149zM231 382v324h47l73 -274q29 -106 36 -131q19 -74 29 -132q14 72 68 282l66 255h52v-317l-106 -389h-159zM628 0v706h148v-706h-148z" />
    <glyph glyph-name="N" unicode="N" horiz-adv-x="688" 
d="M57 0v659l152 -255l7 -404h-159zM57 706h152l422 -706h-150zM473 706h158v-654l-152 256z" />
    <glyph glyph-name="O" unicode="O" horiz-adv-x="771" 
d="M370 725v-134q-48 -6 -80 -27q-91 -59 -90 -207q1 -147 87 -207q30 -21 83 -28v-135q-176 3 -270 141q-67 98 -67 229q0 158 89 259q92 105 248 109zM397 591v135q56 -4 92 -14q72 -20 127 -68q118 -103 118 -287q0 -129 -63 -224q-90 -136 -274 -146v135q80 11 120 61
q50 63 50 172q0 115 -54 178q-20 23 -43 36q-31 17 -73 22z" />
    <glyph glyph-name="P" unicode="P" horiz-adv-x="625" 
d="M57 0v706h159v-706h-159zM242 244v131h51q40 0 53 1q54 4 78 37q21 29 21 65q0 48 -30.5 73.5t-103.5 25.5h-69v129h77q91 0 139 -14q71 -20 109 -81q36 -57 36 -138q0 -91 -50 -151q-36 -44 -86.5 -61t-144.5 -17h-80z" />
    <glyph glyph-name="Q" unicode="Q" horiz-adv-x="771" 
d="M683 150l-129 107q13 40 13 85q0 152 -79 212q-46 35 -104 35q-88 0 -139 -70q-45 -62 -45 -164q0 -97 41 -160q48 -74 141 -74q19 0 41 4l124 -103q-10 -5 -30 -14q-63 -24 -142 -24q-135 0 -223 80q-119 108 -119 288q0 137 65 232q96 140 287 139q154 -1 248 -98
q101 -104 101 -267q0 -110 -51 -208zM390 186l85 103l264 -218l-85 -103z" />
    <glyph glyph-name="R" unicode="R" horiz-adv-x="667" 
d="M54 0v706h159v-706h-159zM240 260v129h102q72 0 100 45q14 23 14 55q0 29 -16 51q-24 33 -112 33h-88v133h112q30 0 52 -1q44 -2 75 -11q62 -19 97 -66.5t35 -115.5q0 -73 -36 -119q-28 -36 -69 -49q-9 -3 -21 -4q52 -14 75 -57q17 -31 35 -148q13 -84 50 -135h-168
q-6 9 -16 29q-14 31 -22 83q-8 56 -9 61q-8 38 -22 57q-22 30 -94 30h-74z" />
    <glyph glyph-name="S" unicode="S" horiz-adv-x="667" 
d="M27 223l158 8q2 -21 5 -33q8 -28 27 -46q33 -31 105 -38l-1 -133q-35 0 -74 6q-91 14 -143 58q-73 62 -77 178zM322 722l-1 -127q-2 0 -16 -1q-96 -4 -95 -71q0 -18 10 -32q15 -23 74 -37l109 -26q103 -25 153 -62q12 -9 29 -26q42 -52 42 -129q0 -72 -37 -126
q-70 -102 -241 -102v133q23 0 47 6q68 17 68 74q0 21 -11 37q-19 28 -67 39l-143 33q-39 9 -78 27q-116 54 -116 180q0 76 45 129q41 48 118 68q46 12 110 13zM348 593l1 129q121 0 193 -62q59 -51 73 -161l-157 -11q0 44 -26 72q-12 13 -38 23t-46 10z" />
    <glyph glyph-name="T" unicode="T" horiz-adv-x="583" 
d="M0 706h185v-131h-185v131zM210 0v706h160v-706h-160zM396 575v131h186v-131h-186z" />
    <glyph glyph-name="U" unicode="U" horiz-adv-x="667" 
d="M48 706h160v-433q0 -66 14 -97q24 -52 97 -57l-1 -136q-138 0 -209 69q-26 25 -42 67q-19 50 -19 138v449zM345 -16v135q49 6 74.5 27.5t32.5 61.5q4 20 4 71v427h160v-428q0 -14 -1 -53.5t-8 -69.5q-14 -61 -50 -98q-64 -65 -212 -73z" />
    <glyph glyph-name="V" unicode="V" horiz-adv-x="646" 
d="M0 706h173l223 -706h-149zM338 271l135 435h171l-233 -665z" />
    <glyph glyph-name="W" unicode="W" horiz-adv-x="896" 
d="M-1 706h159l185 -706h-146zM286 319l85 387h152l173 -706h-144l-103 467l-92 -419zM642 331l97 375h157l-186 -659z" />
    <glyph glyph-name="X" unicode="X" horiz-adv-x="646" 
d="M-3 0l220 343l90 -140l-130 -203h-180zM16 706h179l453 -706h-180zM339 532l112 174h178l-201 -314z" />
    <glyph glyph-name="Y" unicode="Y" horiz-adv-x="625" 
d="M-5 706h177l219 -442v-264h-159v264zM328 452l126 254h176l-223 -415z" />
    <glyph glyph-name="Z" unicode="Z" horiz-adv-x="646" 
d="M21 0v118l501 588h90v-123l-494 -583h-97zM42 706h444l-112 -132h-332v132zM152 0l111 130h356v-130h-467z" />
    <glyph glyph-name="bracketleft" unicode="[" horiz-adv-x="375" 
d="M63 -171v877h148v-877h-148zM238 -171v117h121v-117h-121zM238 589v117h121v-117h-121z" />
    <glyph glyph-name="backslash" unicode="\" horiz-adv-x="354" 
d="M345 -18h-102l-229 724h103z" />
    <glyph glyph-name="bracketright" unicode="]" horiz-adv-x="375" 
d="M14 -175v120h123v-120h-123zM14 706h123v-119h-123v119zM164 -175v881h147v-881h-147z" />
    <glyph glyph-name="underscore" unicode="_" horiz-adv-x="500" 
d="M510 -228h-520v103h520v-103z" />
    <glyph glyph-name="grave" unicode="`" horiz-adv-x="292" 
d="M-104 753h172l49 -148h-98z" />
    <glyph glyph-name="a" unicode="a" horiz-adv-x="583" 
d="M346 351v-106q-32 -6 -96 -21q-68 -19 -68 -64q0 -32 29 -47q18 -10 43 -10q51 0 92 29q-3 -25 -3 -53q0 -9 2 -29t1 -31q-14 -11 -23 -15q-47 -23 -110 -23q-123 0 -170 96q-17 35 -17 78q0 37 11 65q29 75 147 101zM525 340v-234q0 -66 20 -106h-164q-12 33 -12 81v276
q0 44 -16 59q-20 20 -65 19q-73 -1 -88 -48q-1 -7 -3 -20h-142q3 60 33 104q58 84 200 84q132 0 191 -64q22 -23 33 -54q13 -35 13 -97z" />
    <glyph glyph-name="b" unicode="b" 
d="M57 0v706h155v-706h-155zM238 16v125q31 -29 68 -29q110 1 110 172q0 39 -6 61q-24 86 -98 86q-41 0 -74 -29v129q58 26 105 26q68 0 120 -34q109 -72 109 -244q0 -127 -55 -206q-62 -89 -175 -89q-60 0 -104 32z" />
    <glyph glyph-name="c" unicode="c" horiz-adv-x="562" 
d="M291 558v-125q-98 -16 -98 -161q0 -96 49 -134q20 -15 49 -21v-132q-110 4 -175 65q-83 78 -83 218q0 222 189 280q33 9 69 10zM405 208l152 -7q-6 -42 -22 -78q-45 -99 -150 -128q-15 -4 -68 -10l1 131q8 1 29 7q41 17 58 85zM317 433l1 126q164 -3 219 -141
q10 -26 16 -63l-151 -7q-3 15 -7 27q-17 45 -78 58z" />
    <glyph glyph-name="d" unicode="d" 
d="M367 532v-130q-30 27 -67 27q-18 0 -30 -4q-31 -10 -52 -41q-29 -42 -29 -114q0 -62 23 -104q30 -52 87 -51q34 0 57 17q7 4 11 10v-130q-54 -27 -102 -27q-103 0 -170 81q-64 77 -64 203q0 77 27 142q31 73 90 111q54 35 120 35q46 0 99 -25zM393 0v706h154v-706h-154z
" />
    <glyph glyph-name="e" unicode="e" 
d="M576 226h-354q-6 36 -6 57q0 24 6 59l192 1q-3 16 -10 34q-14 34 -45 49q-23 11 -50 11q-22 0 -43 -8q-77 -30 -77 -150q0 -108 58 -149q29 -20 67 -20q50 0 80 30q11 11 20 29l156 -11q-30 -81 -92 -125q-67 -48 -168 -48q-77 0 -137 30q-69 34 -106 106q-34 66 -34 148
q0 120 72 201q78 88 207 88q162 0 228 -140q19 -39 27 -87q9 -51 9 -105z" />
    <glyph glyph-name="f" unicode="f" horiz-adv-x="354" 
d="M10 425v117h75q-2 82 28 118q39 46 140 46h92v-117h-60q-45 0 -44 -47h104v-117h-104v-425h-156v425h-75z" />
    <glyph glyph-name="g" unicode="g" horiz-adv-x="625" 
d="M386 505v-120q-35 45 -85 45q-23 0 -45 -9q-74 -30 -74 -124q0 -31 9 -57q27 -77 104 -77q39 0 73 28q9 7 18 20v-138q-61 -40 -126 -40q-62 0 -110 26q-73 39 -102 128q-17 50 -17 106q0 94 46 164q66 100 183 100q74 0 126 -52zM59 -9h165q2 -10 10 -20q23 -30 77 -30
q81 0 97 62q5 19 5 50v489h155v-468q0 -12 -2 -48q-2 -32 -7 -53q-10 -43 -36 -74q-66 -79 -227 -79q-97 0 -158 38q-29 18 -48 46.5t-31 86.5z" />
    <glyph glyph-name="h" unicode="h" 
d="M57 0v706h153v-706h-153zM547 352v-352h-154v308q0 78 -29 100q-22 17 -52 17q-39 0 -76 -36v120q20 16 45 28q43 20 88 20q97 0 145 -72q33 -49 33 -133z" />
    <glyph glyph-name="i" unicode="i" horiz-adv-x="271" 
d="M57 0v542h155v-542h-155zM57 570v136h155v-136h-155z" />
    <glyph glyph-name="j" unicode="j" horiz-adv-x="271" 
d="M-32 -173v129q59 1 74 15t15 48v523h155v-507q0 -61 -2 -84.5t-6 -36.5q-9 -27 -30 -48q-30 -29 -97 -37q-28 -3 -109 -2zM57 569v137h155v-137h-155z" />
    <glyph glyph-name="k" unicode="k" horiz-adv-x="583" 
d="M57 0v706h154v-706h-154zM239 387l139 155h200l-230 -226l245 -316h-197l-157 212v175z" />
    <glyph glyph-name="l" unicode="l" horiz-adv-x="271" 
d="M58 0v706h154v-706h-154z" />
    <glyph glyph-name="m" unicode="m" horiz-adv-x="896" 
d="M56 0v542h156v-542h-156zM841 305v-305h-155v311q0 80 -45 98q-18 7 -33 7q-42 0 -64 -34q-16 -24 -16 -72v-310h-156v283q0 36 -1 50q-2 22 -6 35q-10 29 -36 40q-16 7 -36 7q-30 0 -55 -17v117q7 6 28 20q39 21 88 21q91 0 133 -62q2 -3 15 -29q8 13 21 28
q55 63 145 63q96 0 144 -71q19 -27 25 -70q4 -32 4 -110z" />
    <glyph glyph-name="n" unicode="n" 
d="M56 0v542h157v-542h-157zM549 334v-334h-157v326q0 22 -7 45q-20 48 -74 48q-43 0 -73 -36l1 123q57 45 123 45q98 0 150 -72q37 -52 37 -145z" />
    <glyph glyph-name="o" unicode="o" horiz-adv-x="625" 
d="M301 559v-124q-45 -8 -71 -34q-41 -42 -41 -129q0 -72 30 -115q13 -18 27 -28q19 -13 55 -20v-126q-49 3 -81 12q-65 19 -110 64q-78 79 -79 212q-1 67 24 125q62 147 246 163zM327 435v124q45 -3 80 -13q65 -19 109 -63q80 -79 79 -207q0 -92 -46 -165
q-47 -76 -131 -107q-44 -16 -91 -19v125q15 3 49 19q60 40 60 149q0 76 -32 116q-19 24 -46 34q-14 5 -31 7z" />
    <glyph glyph-name="p" unicode="p" 
d="M56 -171v713h154v-713h-154zM237 13v130q29 -26 67 -26q53 0 84 48q28 43 28 113q0 82 -35 123q-27 31 -71 31t-73 -29v121q4 3 19 13q40 22 92 22q109 0 171 -89q54 -78 54 -197q0 -178 -117 -252q-53 -34 -115 -33q-57 1 -104 25z" />
    <glyph glyph-name="q" unicode="q" 
d="M366 530v-125q-2 2 -10 9q-24 17 -55 17q-34 0 -60 -19q-53 -38 -53 -143q0 -96 50 -134q29 -21 59 -21q39 1 69 31v-133q-52 -26 -105 -26q-35 0 -74 13q-58 19 -97 74q-58 81 -58 200q0 111 55 189q67 95 183 95q52 0 96 -27zM393 -171v713h155v-713h-155z" />
    <glyph glyph-name="r" unicode="r" horiz-adv-x="375" 
d="M57 0v542h157v-542h-157zM376 551v-142q-15 4 -33 4q-56 0 -83 -21q-8 -5 -19 -18v136q8 10 17 17q32 26 90 26q10 0 28 -2z" />
    <glyph glyph-name="s" unicode="s" horiz-adv-x="562" 
d="M31 186l149 4q0 -18 9 -39q17 -39 76 -50l-1 -116q-126 8 -184 72q-30 33 -41 74q-4 16 -8 55zM265 560l-1 -113q-67 -6 -67 -46q0 -15 11 -24q15 -13 57 -22l79 -18q32 -7 54 -14q131 -40 131 -158q0 -48 -25 -89q-57 -92 -212 -91v114q80 5 80 52q0 12 -6 21
q-12 18 -63 31l-101 25q-58 14 -90 35q-63 41 -63 124q1 120 123 159q29 9 93 14zM292 445v114q60 -1 109 -22q65 -28 93 -84q14 -29 20 -78l-146 -7q-1 15 -4 25q-12 42 -72 52z" />
    <glyph glyph-name="t" unicode="t" horiz-adv-x="354" 
d="M9 426v116h75v98h155v-98h102v-116h-102v-225q0 -50 4 -60q8 -21 58 -21q12 0 40 2v-120q-79 -7 -103 -7q-71 0 -106 24q-7 5 -24 23q-24 33 -24 104v280h-75z" />
    <glyph glyph-name="u" unicode="u" 
d="M56 542h156v-312q0 -73 32 -98q24 -19 52 -18q40 1 71 31v-116q-70 -43 -129 -43q-50 0 -91 20q-57 28 -77 92q-14 43 -14 124v320zM393 0v542h155v-542h-155z" />
    <glyph glyph-name="v" unicode="v" horiz-adv-x="521" 
d="M0 542h165l166 -542h-143zM277 268l79 274h163l-171 -508z" />
    <glyph glyph-name="w" unicode="w" horiz-adv-x="771" 
d="M-7 542h158l140 -542h-140zM248 275l71 267h136l140 -542h-118l-57 226q-7 26 -20 79q-5 23 -13 68q-25 -118 -80 -333zM553 268l69 274h159l-159 -542z" />
    <glyph glyph-name="x" unicode="x" horiz-adv-x="542" 
d="M-11 0l369 542h174l-369 -542h-174zM-7 542h179l78 -111l-88 -129zM282 130l89 129l180 -259h-180z" />
    <glyph glyph-name="y" unicode="y" horiz-adv-x="521" 
d="M-1 542h169l161 -573q-21 -53 -35 -74q-16 -25 -41 -39q-38 -22 -142 -22h-61v123q79 0 92 5q22 9 29.5 28t7.5 34q0 14 -5 28zM278 247l79 295h165l-179 -528z" />
    <glyph glyph-name="z" unicode="z" horiz-adv-x="542" 
d="M23 116l389 426h73v-120l-378 -422h-84v116zM53 416v126h325l-117 -126h-208zM142 0l116 130h244v-130h-360z" />
    <glyph glyph-name="braceleft" unicode="{" horiz-adv-x="354" 
d="M126 414v124q0 80 9 113q17 60 73 82q30 12 131 15v-7q-12 -2 -29 -8q-56 -19 -70 -74q-5 -20 -5 -86v-96q0 -86 -3 -115q-6 -45 -26 -72t-66 -41q43 -14 63 -36q24 -27 30 -69q3 -25 3 -112v-109q0 -86 20 -117q14 -22 36 -33q11 -6 47 -17v-6q-93 0 -132 16
q-20 8 -35 20q-31 26 -40 75q-5 26 -5 85v171q0 64 -27 98q-12 15 -26 23q-8 5 -22 8v7q15 3 27 10q33 19 43 69q4 22 4 82z" />
    <glyph glyph-name="braceright" unicode="}" horiz-adv-x="354" 
d="M228 83v-124q0 -68 -4 -92q-13 -75 -77 -102q-29 -12 -132 -15v6q63 16 84 48q14 21 18 47q2 18 2 73v97q0 87 3 114q6 46 25.5 72.5t67.5 40.5q-41 12 -64 38t-29 68q-4 27 -4 111v109q0 86 -18 115q-14 23 -37 35q-12 6 -48 17v7q16 -1 49 -2q81 -4 118 -35
q31 -26 40 -74q5 -25 5 -86v-128q0 -55 1 -69q5 -39 22 -65q13 -18 31 -29q8 -5 21 -9v-6q-17 -5 -27 -11q-33 -20 -43 -69q-4 -23 -4 -82z" />
    <glyph glyph-name="euro" horiz-adv-x="498" 
d="M522 633l-23 -156l-48 6q0 157 -94 157q-103 0 -161 -211h172l-21 -48h-164q-6 -24 -16 -73h147l-21 -47h-134q-6 -41 -6 -74q0 -56 21 -91q26 -43 78 -43q58 0 101 68q24 38 51 119l55 -10l-54 -188q-77 -53 -159 -53q-111 0 -166 84q-47 71 -47 188h-74l21 47h56
q3 25 12 73h-66l21 48h59q41 112 108 183q83 88 187 88q94 0 165 -67z" />
    <glyph glyph-name="exclamdown" unicode="&#xa1;" horiz-adv-x="292" 
d="M44 0v236l28 268h103l23 -268v-236h-154zM51 558v148h147v-148h-147z" />
    <glyph glyph-name="sterling" unicode="&#xa3;" horiz-adv-x="583" 
d="M138 213v-84q-8 -2 -13 -4q-14 -9 -13 -24q1 -19 16 -24q3 -1 10 -3v-85q-77 5 -107 59q-14 25 -14 54q0 51 37 83q32 28 84 28zM52 278v94h75q-44 84 -44 144q0 85 64 137q61 50 157 52v-115q-17 -4 -50 -19q-35 -25 -35 -70q0 -33 17 -68q6 -15 34 -61h127v-94h-93
q13 -35 13 -73q0 -32 -8 -62q28 -28 63 -28q20 0 36 12q31 23 28 113h126q5 -173 -74 -226q-37 -25 -89 -25q-69 0 -140 45q-40 -36 -94 -43v82q26 5 26 28q0 10 -9 18q-2 3 -10 7q-3 1 -7 2v83q11 -2 37 -11q-4 40 -30 78h-120zM330 588v117q82 -3 137 -46q78 -61 81 -192
l-128 -28q0 33 -5 57q-15 75 -85 92z" />
    <glyph glyph-name="section" unicode="&#xa7;" horiz-adv-x="625" 
d="M316 723l-1 -108l-22 -4q-19 -5 -27 -15t-8 -22q0 -15 14 -29t81 -44l87 -39q15 -6 43 -20q106 -55 106 -147q0 -53 -31 -90q-24 -28 -80 -51q6 -5 18 -17q41 -45 41 -110q0 -50 -27 -91q-52 -79 -190 -86l1 112q39 7 53 27q10 14 10 31t-12 32q-17 20 -64 42l-140 64
q-31 14 -60 35q-66 48 -66 128q0 96 95 132q14 5 31 9q-7 3 -15 10q-43 36 -43 99q0 73 55 112q47 33 151 40zM392 338l-135 62q-73 -9 -72 -58q1 -36 72 -69l130 -60q9 3 25 9q36 20 36 51q0 33 -56 65zM78 65h133q0 -48 21 -72q8 -12 23 -20q12 -7 39 -11v-112
q-50 2 -89 14q-128 41 -128 186q0 3 1 8v7zM342 614v109q51 -5 83 -16q71 -25 97 -84q11 -26 17 -81h-134q-2 61 -63 72z" />
    <glyph glyph-name="dieresis" unicode="&#xa8;" horiz-adv-x="292" 
d="M-125 729h139v-125h-139v125zM95 729h137v-125h-137v125z" />
    <glyph glyph-name="copyright" unicode="&#xa9;" horiz-adv-x="833" 
d="M773 351q-1 -134 -88 -234q-104 -120 -268 -120q-159 0 -265 116q-91 99 -91 241q0 132 81 228q107 127 276 127q120 0 212 -69q145 -109 143 -289zM740 352q1 111 -64 197q-96 128 -258 128q-107 0 -192 -62q-133 -98 -133 -262q0 -64 24 -123q37 -91 119.5 -146
t181.5 -55q51 0 103 17q99 32 158.5 116.5t60.5 189.5zM617 510l-72 -68q-56 59 -121 59q-36 0 -68 -16q-74 -37 -74 -131q0 -64 40 -104.5t104 -40.5q69 0 119 56l72 -66q-79 -87 -194 -87q-106 0 -174 68t-68 174q0 88 49 152q70 92 194 92q111 0 193 -88z" />
    <glyph glyph-name="guillemotleft" unicode="&#xab;" horiz-adv-x="437" 
d="M40 345l154 136v-129l-82 -70l82 -68v-123l-154 129v125zM230 344l155 137v-125l-82 -73l82 -70v-121l-155 130v122z" />
    <glyph glyph-name="sfthyphen" unicode="&#xad;" horiz-adv-x="338" 
d="M8 174l33 122h246l-33 -122h-246z" />
    <glyph glyph-name="registered" unicode="&#xae;" horiz-adv-x="833" 
d="M604 130h-109q-12 24 -27 116q-9 57 -31 70q-16 10 -61 10h-23v-196h-95v453h155q61 0 84 -4q47 -9 73 -41t26 -75q0 -42 -26 -69q-14 -15 -28 -23q-4 -2 -33 -14q21 -10 30 -20q17 -17 24 -49q5 -28 9 -55q12 -67 32 -103zM353 402h58q66 0 82 28q8 14 8 28q0 11 -7 27
q-14 25 -71 25h-70v-108zM773 351q-1 -130 -85 -229q-106 -125 -271 -125q-123 0 -218 73q-138 106 -138 284q0 132 81 228q107 127 276 127q180 0 286 -143q70 -94 69 -215zM741 352q1 109 -63 195q-96 130 -260 130q-107 0 -192 -62q-133 -98 -133 -262q0 -64 24 -123
q37 -91 119.5 -146t181.5 -55q55 0 109 19q97 34 155 117.5t59 186.5z" />
    <glyph glyph-name="acute" unicode="&#xb4;" horiz-adv-x="292" 
d="M-12 606l45 149h164l-111 -149h-98z" />
    <glyph glyph-name="ch270" unicode="&#xb7;" horiz-adv-x="249" 
d="M38 348q0 34 23 57t57 23t57.5 -23t23.5 -57t-23.5 -57.5t-57.5 -23.5t-57 23.5t-23 57.5z" />
    <glyph glyph-name="ch270" unicode="&#x2219;" horiz-adv-x="249" 
d="M38 348q0 34 23 57t57 23t57.5 -23t23.5 -57t-23.5 -57.5t-57.5 -23.5t-57 23.5t-23 57.5z" />
    <glyph glyph-name="cedilla" unicode="&#xb8;" horiz-adv-x="292" 
d="M-26 -237l64 84h-42v104h123v-104l-66 -84h-79z" />
    <glyph glyph-name="guillemotright" unicode="&#xbb;" horiz-adv-x="437" 
d="M52 210l81 73l-81 69v123l156 -132v-122l-156 -136v125zM243 212l81 71l-81 68v124l154 -129v-126l-154 -135v127z" />
    <glyph glyph-name="questiondown" unicode="&#xbf;" horiz-adv-x="562" 
d="M214 499l141 -1q-1 -46 -2 -48q-2 -28 -8 -48q-16 -51 -79 -96q-75 -54 -75 -106q0 -18 7 -36q18 -48 78 -56v-126q-147 13 -202 102q-30 49 -30 112q0 93 91 171q16 14 47 42q33 32 32 90zM207 561v145h148v-145h-148zM302 -16l1 123q16 1 24 3q18 5 34 15q28 18 40 56
q6 20 8 45h143q-1 -16 -5 -46q-12 -83 -58 -129q-61 -61 -187 -67z" />
    <glyph glyph-name="Agrave" unicode="&#xc0;" horiz-adv-x="667" 
d="M-6 0l244 706h180l250 -706h-179l-46 150h-198l38 130h121l-51 168q-9 31 -24 103q-5 -28 -23 -99l-133 -452h-179zM174 913h155l44 -134h-88z" />
    <glyph glyph-name="Aacute" unicode="&#xc1;" horiz-adv-x="667" 
d="M-6 0l244 706h180l250 -706h-179l-46 150h-198l38 130h121l-51 168q-9 31 -24 103q-5 -28 -23 -99l-133 -452h-179zM287 780l43 134h145l-100 -134h-88z" />
    <glyph glyph-name="Acircumflex" unicode="&#xc2;" horiz-adv-x="667" 
d="M-6 0l244 706h180l250 -706h-179l-46 150h-198l38 130h121l-51 168q-9 31 -24 103q-5 -28 -23 -99l-133 -452h-179zM197 735l78 121h113l71 -121l-89 10l-40 68l-41 -68z" />
    <glyph glyph-name="Atilde" unicode="&#xc3;" horiz-adv-x="667" 
d="M-6 0l244 706h180l250 -706h-179l-46 150h-198l38 130h121l-51 168q-9 31 -24 103q-5 -28 -23 -99l-133 -452h-179zM424 891h53q-24 -51 -43 -72q-29 -34 -71 -39q-14 0 -42 14q-9 6 -21 11q-20 9 -23 9q-22 0 -39 -33l-57 1l25 46q40 65 98 66q7 0 66 -28q11 -5 15 -5
q11 0 23.5 9.5t15.5 20.5z" />
    <glyph glyph-name="Adieresis" unicode="&#xc4;" horiz-adv-x="667" 
d="M145 772v126h130v-126h-130zM380 772v126h131v-126h-131zM-6 0l244 706h180l250 -706h-179l-46 150h-198l38 130h121l-51 168q-9 29 -24 103q-7 -33 -23 -99l-133 -452h-179z" />
    <glyph glyph-name="Aring" unicode="&#xc5;" horiz-adv-x="667" 
d="M-6 0l244 706h180l250 -706h-179l-46 150h-198l38 130h121l-51 168q-9 29 -24 103q-7 -33 -23 -99l-133 -452h-179zM227 837q-2 21 4 42q10 33 37 52t61 19q43 0 73 -30t30 -73q0 -42 -30 -72t-73 -30q-27 0 -48 11q-48 26 -54 81zM286 842q3 -29 31 -37q11 -2 13 -2
q18 0 30 13.5t12 31.5q0 17 -13 30t-30 12q-11 0 -19 -4q-28 -12 -24 -44z" />
    <glyph glyph-name="AE" unicode="&#xc6;" horiz-adv-x="958" 
d="M-8 0l313 706h259v-706h-156v152h-156l53 123h103v319l-247 -594h-169zM590 130h332v-130h-332v130zM590 308v127h305v-127h-305zM590 572v134h332v-134h-332z" />
    <glyph glyph-name="Ccedilla" unicode="&#xc7;" horiz-adv-x="708" 
d="M372 719l-1 -131q-169 -17 -169 -244q0 -39 6 -69q22 -109 107 -144q25 -11 57 -12l-1 -134q-53 3 -82 10q-64 14 -116 52q-142 104 -142 307q0 130 64 224q93 136 277 141zM399 588v131q121 -3 199 -68q44 -36 66 -80q17 -33 25 -79l-160 -12q-4 16 -8 26q-7 18 -21 34
q-36 42 -101 48zM399 -15v134q26 3 45 10q60 22 82 81q6 15 8 37l166 -10q-7 -37 -14 -59q-15 -45 -43 -82q-76 -100 -244 -111zM276 -237l64 84h-41v104h122v-104l-66 -84h-79z" />
    <glyph glyph-name="Egrave" unicode="&#xc8;" 
d="M55 0v706h160v-706h-160zM242 0v130h336v-130h-336zM242 309v127h304v-127h-304zM242 577v129h330v-129h-330zM156 914h155l44 -134h-88z" />
    <glyph glyph-name="Eacute" unicode="&#xc9;" 
d="M55 0v706h160v-706h-160zM242 0v130h336v-130h-336zM242 309v127h304v-127h-304zM242 577v129h330v-129h-330zM264 780l43 134h145l-100 -134h-88z" />
    <glyph glyph-name="Ecircumflex" unicode="&#xca;" 
d="M55 0v706h160v-706h-160zM242 0v130h336v-130h-336zM242 309v127h304v-127h-304zM242 577v129h330v-129h-330zM177 750l78 121h113l71 -121l-89 10l-40 68l-41 -68z" />
    <glyph glyph-name="Edieresis" unicode="&#xcb;" 
d="M55 0v706h160v-706h-160zM242 0v130h336v-130h-336zM242 309v127h304v-127h-304zM242 577v129h330v-129h-330zM116 770v126h130v-126h-130zM352 770v126h130v-126h-130z" />
    <glyph glyph-name="Igrave" unicode="&#xcc;" horiz-adv-x="271" 
d="M55 0v706h159v-706h-159zM-23 914h155l44 -134h-88z" />
    <glyph glyph-name="Iacute" unicode="&#xcd;" horiz-adv-x="271" 
d="M55 0v706h159v-706h-159zM89 780l43 134h145l-100 -134h-88z" />
    <glyph glyph-name="Icircumflex" unicode="&#xce;" horiz-adv-x="271" 
d="M55 0v706h159v-706h-159zM-31 769l87 125h161l84 -125h-114l-52 67l-49 -67h-117z" />
    <glyph glyph-name="Idieresis" unicode="&#xcf;" horiz-adv-x="271" 
d="M55 0v706h159v-706h-159zM-50 770v126h130v-126h-130zM185 770v126h130v-126h-130z" />
    <glyph glyph-name="Ntilde" unicode="&#xd1;" horiz-adv-x="688" 
d="M57 0v659l152 -255l7 -404h-159zM57 706h152l422 -706h-150zM473 706h158v-654l-152 256zM425 893h78q-8 -123 -94 -123q-22 0 -76 14q-31 8 -41 8q-19 0 -25 -20h-77q3 50 18 78q9 18 17 23q19 18 52 18q25 0 81 -14q32 -8 39 -8q19 0 26 13q1 4 2 11z" />
    <glyph glyph-name="Ograve" unicode="&#xd2;" horiz-adv-x="771" 
d="M370 725v-134q-48 -6 -80 -27q-91 -59 -90 -207q1 -147 87 -207q30 -21 83 -28v-135q-176 3 -270 141q-67 98 -67 229q0 158 89 259q92 105 248 109zM397 591v135q56 -4 92 -14q72 -20 127 -68q118 -103 118 -287q0 -129 -63 -224q-90 -136 -274 -146v135q170 23 170 233
q0 115 -54 178q-42 49 -116 58zM230 929h155l44 -134h-88z" />
    <glyph glyph-name="Oacute" unicode="&#xd3;" horiz-adv-x="771" 
d="M370 725v-134q-48 -6 -80 -27q-91 -59 -90 -207q1 -147 87 -207q30 -21 83 -28v-135q-176 3 -270 141q-67 98 -67 229q0 158 89 259q92 105 248 109zM397 591v135q56 -4 92 -14q72 -20 127 -68q118 -103 118 -287q0 -129 -63 -224q-90 -136 -274 -146v135q170 23 170 233
q0 115 -54 178q-42 49 -116 58zM339 795l43 134h145l-100 -134h-88z" />
    <glyph glyph-name="Ocircumflex" unicode="&#xd4;" horiz-adv-x="771" 
d="M370 725v-134q-48 -6 -80 -27q-91 -59 -90 -207q1 -147 87 -207q30 -21 83 -28v-135q-176 3 -270 141q-67 98 -67 229q0 158 89 259q92 105 248 109zM397 591v135q56 -4 92 -14q72 -20 127 -68q118 -103 118 -287q0 -129 -63 -224q-90 -136 -274 -146v135q170 23 170 233
q0 115 -54 178q-42 49 -116 58zM250 750l78 121h113l71 -121l-89 10l-40 68l-41 -68z" />
    <glyph glyph-name="Otilde" unicode="&#xd5;" horiz-adv-x="771" 
d="M370 725v-134q-48 -6 -80 -27q-91 -59 -90 -207q1 -147 87 -207q30 -21 83 -28v-135q-176 3 -270 141q-67 98 -67 229q0 158 89 259q92 105 248 109zM397 591v135q56 -4 92 -14q72 -20 127 -68q118 -103 118 -287q0 -129 -63 -224q-90 -136 -274 -146v135q170 23 170 233
q0 115 -54 178q-42 49 -116 58zM477 911h53q-24 -51 -43 -72q-29 -34 -71 -39q-14 0 -42 14q-9 6 -21 11q-20 9 -23 9q-22 0 -39 -33l-57 1l25 46q40 65 98 66q7 0 66 -28q11 -5 15 -5q11 0 23.5 9.5t15.5 20.5z" />
    <glyph glyph-name="Odieresis" unicode="&#xd6;" horiz-adv-x="771" 
d="M201 771v125h129v-125h-129zM435 771v125h130v-125h-130zM370 725v-134q-48 -6 -80 -27q-91 -59 -90 -207q1 -147 87 -207q30 -21 83 -28v-135q-176 3 -270 141q-67 98 -67 229q0 158 89 259q92 105 248 109zM397 591v135q56 -4 92 -14q72 -20 127 -68q118 -103 118 -287
q0 -129 -63 -224q-90 -136 -274 -146v135q80 11 120 61q50 63 50 172q0 115 -54 178q-20 23 -43 36q-31 17 -73 22z" />
    <glyph glyph-name="Oslash" unicode="&#xd8;" horiz-adv-x="771" 
d="M371 723v-136q-22 0 -46 -9q-43 -16 -69 -48q-55 -67 -55 -183q0 -64 27 -127l269 326q-21 18 -36 25q-26 13 -64 16l1 136q113 -7 194 -62l69 85l52 -43l-71 -86q10 -12 29 -38q63 -94 63 -228q0 -138 -71 -233q-97 -129 -266 -134l1 136q77 8 120 61q50 62 50 169
q0 84 -29 142l-270 -329q38 -35 102 -43v-136q-38 1 -66 7q-53 10 -97 35q-10 5 -36 22l-63 -76l-50 40l66 82q-91 111 -91 259q0 156 86 257q46 54 113 83q50 22 138 30z" />
    <glyph glyph-name="Ugrave" unicode="&#xd9;" horiz-adv-x="667" 
d="M48 706h160v-433q0 -66 14 -97q24 -52 97 -57l-1 -136q-138 0 -209 69q-61 59 -61 205v449zM345 -16v135q93 11 107 89q4 22 4 71v427h160v-428q0 -84 -9 -123q-21 -91 -96 -132q-60 -33 -166 -39zM179 884h155l44 -134h-88z" />
    <glyph glyph-name="Uacute" unicode="&#xda;" horiz-adv-x="667" 
d="M48 706h160v-433q0 -66 14 -97q24 -52 97 -57l-1 -136q-138 0 -209 69q-61 59 -61 205v449zM345 -16v135q93 11 107 89q4 22 4 71v427h160v-428q0 -84 -9 -123q-21 -91 -96 -132q-60 -33 -166 -39zM291 750l43 134h145l-100 -134h-88z" />
    <glyph glyph-name="Ucircumflex" unicode="&#xdb;" horiz-adv-x="667" 
d="M48 706h160v-433q0 -66 14 -97q24 -52 97 -57l-1 -136q-138 0 -209 69q-26 25 -42 67q-19 50 -19 138v449zM345 -16v135q49 6 74.5 27.5t32.5 61.5q4 20 4 71v427h160v-428q0 -14 -1 -53.5t-8 -69.5q-14 -61 -50 -98q-64 -65 -212 -73zM167 769l87 125h161l84 -125h-114
l-52 67l-49 -67h-117z" />
    <glyph glyph-name="Udieresis" unicode="&#xdc;" horiz-adv-x="667" 
d="M148 770v126h131v-126h-131zM382 770v126h132v-126h-132zM48 706h160v-433q0 -66 14 -97q24 -52 97 -57l-1 -136q-138 0 -209 69q-26 25 -42 67q-19 50 -19 138v449zM345 -16v135q49 6 74.5 27.5t32.5 61.5q4 20 4 71v427h160v-428q0 -14 -1 -53.5t-8 -69.5
q-14 -61 -50 -98q-64 -65 -212 -73z" />
    <glyph glyph-name="Yacute" unicode="&#xdd;" horiz-adv-x="625" 
d="M-5 706h177l219 -442v-264h-159v264zM328 452l126 254h176l-223 -415zM265 750l43 134h145l-100 -134h-88z" />
    <glyph glyph-name="germandbls" unicode="&#xdf;" 
d="M57 0v497q0 66 16 107q43 111 208 120v-121q-11 -2 -37 -13q-24 -16 -31 -54q-3 -18 -3 -70v-466h-153zM250 0v110q25 -5 57 -5t54 10q60 27 60 115q0 87 -72 109q-20 6 -46 6q-19 0 -53 -2v105q63 -3 86 4q50 16 50 73q0 41 -38 66q-17 9 -40 12v121q85 -2 139 -32
q27 -15 43 -33q8 -8 20 -27q25 -48 25 -89q-1 -79 -61 -124q-5 -4 -22 -13q27 -14 49 -32q69 -58 69 -161q0 -45 -15 -90q-46 -137 -209 -137q-45 0 -96 14z" />
    <glyph glyph-name="agrave" unicode="&#xe0;" horiz-adv-x="583" 
d="M346 351v-106q-53 -10 -96 -21q-68 -18 -68 -64q0 -28 23 -43q20 -14 49 -14q51 0 92 29q-3 -25 -3 -53q0 -8 2 -28.5t1 -31.5q-13 -10 -23 -15q-48 -23 -110 -23q-123 0 -170 96q-17 35 -17 78q0 133 158 166q45 8 162 30zM525 340v-234q0 -66 20 -106h-164
q-12 33 -12 81v276q0 44 -18.5 61.5t-62.5 16.5q-73 -1 -88 -48q-1 -7 -3 -20h-142q3 60 33 104q58 84 200 84q181 0 224 -118q13 -36 13 -97zM143 752h147l42 -128h-84z" />
    <glyph glyph-name="aacute" unicode="&#xe1;" horiz-adv-x="583" 
d="M346 351v-106q-53 -10 -96 -21q-68 -18 -68 -64q0 -28 23 -43q20 -14 49 -14q51 0 92 29q-3 -25 -3 -53q0 -8 2 -28.5t1 -31.5q-13 -10 -23 -15q-48 -23 -110 -23q-123 0 -170 96q-17 35 -17 78q0 133 158 166q45 8 162 30zM525 340v-234q0 -66 20 -106h-164
q-12 33 -12 81v276q0 44 -18.5 61.5t-62.5 16.5q-73 -1 -88 -48q-1 -7 -3 -20h-142q3 60 33 104q58 84 200 84q181 0 224 -118q13 -36 13 -97zM246 624l41 128h138l-95 -128h-84z" />
    <glyph glyph-name="acircumflex" unicode="&#xe2;" horiz-adv-x="583" 
d="M346 351v-106q-53 -10 -96 -21q-68 -18 -68 -64q0 -28 23 -43q20 -14 49 -14q51 0 92 29q-3 -25 -3 -53q0 -8 2 -28.5t1 -31.5q-13 -10 -23 -15q-48 -23 -110 -23q-123 0 -170 96q-17 35 -17 78q0 133 158 166q45 8 162 30zM525 340v-234q0 -66 20 -106h-164
q-12 33 -12 81v276q0 44 -18.5 61.5t-62.5 16.5q-73 -1 -88 -48q-1 -7 -3 -20h-142q3 60 33 104q58 84 200 84q181 0 224 -118q13 -36 13 -97zM161 590l75 115h107l67 -115l-84 10l-38 64l-39 -64z" />
    <glyph glyph-name="atilde" unicode="&#xe3;" horiz-adv-x="583" 
d="M346 351v-106q-53 -10 -96 -21q-68 -18 -68 -64q0 -28 23 -43q20 -14 49 -14q51 0 92 29q-3 -25 -3 -53q0 -8 2 -28.5t1 -31.5q-13 -10 -23 -15q-48 -23 -110 -23q-123 0 -170 96q-17 35 -17 78q0 133 158 166q45 8 162 30zM525 340v-234q0 -66 20 -106h-164
q-12 33 -12 81v276q0 44 -18.5 61.5t-62.5 16.5q-73 -1 -88 -48q-1 -7 -3 -20h-142q3 60 33 104q58 84 200 84q181 0 224 -118q13 -36 13 -97zM377 729h51q-30 -63 -58 -85q-21 -16 -51 -20q-10 0 -40 13q-9 7 -20 11q-15 8 -21 8q-22 0 -37 -31l-55 1q28 52 47 72
q33 33 70 34q12 0 32 -10q16 -8 31 -16q11 -5 14 -5q28 0 37 28z" />
    <glyph glyph-name="adieresis" unicode="&#xe4;" horiz-adv-x="583" 
d="M139 732h139v-124h-139v124zM359 732h138v-124h-138v124zM346 351v-106q-32 -6 -96 -21q-68 -19 -68 -64q0 -32 29 -47q18 -10 43 -10q51 0 92 29q-3 -25 -3 -53q0 -18 1 -26q2 -15 2 -19v-15q-14 -11 -23 -15q-47 -23 -110 -23q-123 0 -170 96q-17 35 -17 78q0 37 11 65
q29 75 147 101zM525 340v-234q0 -66 20 -106h-164q-12 33 -12 81v276q0 30 -5 44q-16 34 -76 34q-43 0 -66 -18q-16 -12 -22 -30q-1 -7 -3 -20h-142q3 60 33 104q58 84 200 84q132 0 191 -64q22 -23 33 -54q13 -35 13 -97z" />
    <glyph glyph-name="aring" unicode="&#xe5;" horiz-adv-x="583" 
d="M217 669q-3 36 16 64q28 41 83 41q22 0 37 -6q59 -24 59 -92q0 -25 -9 -43q-27 -52 -89 -52q-55 0 -83 44q-12 18 -14 44zM277 676q0 -36 38 -36q16 0 26.5 11.5t10.5 27.5t-11 26.5t-27 10.5t-26.5 -12t-10.5 -28zM346 351l-1 -106q-32 -6 -95 -21q-16 -4 -48 -21
q-20 -15 -20 -43q0 -32 29 -47q18 -10 43 -10q51 0 92 29q-3 -25 -3 -53q0 -8 1.5 -28.5t0.5 -31.5q-5 -4 -22 -14q-48 -24 -110 -24q-123 0 -170 96q-17 35 -17 78q0 117 116 155q22 7 165 33q20 4 39 8zM525 340v-234q0 -66 20 -106h-164q-12 33 -12 81v276q0 44 -16 59
q-20 20 -65 19q-73 -1 -88 -48q-1 -7 -3 -20h-142q3 60 33 104q58 84 200 84q132 0 191 -64q22 -23 33 -54q13 -35 13 -97z" />
    <glyph glyph-name="ae" unicode="&#xe6;" horiz-adv-x="958" 
d="M360 340v-112q-127 0 -155 -18q-22 -14 -22 -43q1 -64 81 -64q48 0 80 25q13 10 29 35q15 -56 59 -112q-68 -52 -139 -63q-26 -4 -57 -4q-57 0 -101 18q-106 43 -106 165q0 145 161 166q53 7 170 7zM930 228h-361q-5 28 -5 58q0 33 5 59h198q-2 17 -11 36q-27 59 -99 59
q-35 0 -62 -17q-58 -37 -58 -146q0 -65 22.5 -104.5t64.5 -52.5q19 -6 42 -6q38 0 65 16q15 9 27 24q3 4 9 16l157 -10q-24 -52 -49 -83q-74 -91 -216 -91q-66 0 -123 24q-94 39 -130 134q-15 40 -19 84q-1 16 -1 86q0 32 -3 53q-10 70 -92 70q-54 0 -77 -28
q-11 -14 -17 -37h-143q4 30 13 55q31 85 119 114q50 16 111 16q99 0 164 -42q7 -4 21 -14q76 58 181 58q94 0 160 -52t92 -148q15 -55 15 -131z" />
    <glyph glyph-name="ccedilla" unicode="&#xe7;" horiz-adv-x="562" 
d="M291 558v-125q-98 -16 -98 -161q0 -96 49 -134q20 -15 49 -21v-132q-110 4 -175 65q-83 78 -83 218q0 222 189 280q33 9 69 10zM405 208l152 -7q-6 -42 -22 -78q-45 -99 -150 -128q-15 -4 -68 -10l1 131q8 1 29 7q41 17 58 85zM317 433l1 126q164 -3 219 -141
q10 -26 16 -63l-151 -7q-3 15 -7 27q-17 45 -78 58zM203 -237l64 84h-41v104h122v-104l-66 -84h-79z" />
    <glyph glyph-name="egrave" unicode="&#xe8;" 
d="M576 226h-354q-6 36 -6 57q0 24 6 59l192 1q-12 62 -55 83q-23 11 -50 11q-22 0 -43 -8q-77 -30 -77 -150q0 -71 27 -116q32 -53 98 -53q70 0 100 59l156 -11q-64 -173 -260 -173q-173 0 -243 136q-34 66 -34 148q0 125 77 207t202 82q162 0 228 -140q36 -76 36 -192z
M164 752h147l42 -128h-84z" />
    <glyph glyph-name="eacute" unicode="&#xe9;" 
d="M576 226h-354q-6 36 -6 57q0 24 6 59l192 1q-12 62 -55 83q-23 11 -50 11q-22 0 -43 -8q-77 -30 -77 -150q0 -71 27 -116q32 -53 98 -53q70 0 100 59l156 -11q-64 -173 -260 -173q-173 0 -243 136q-34 66 -34 148q0 125 77 207t202 82q162 0 228 -140q36 -76 36 -192z
M270 624l41 128h138l-95 -128h-84z" />
    <glyph glyph-name="ecircumflex" unicode="&#xea;" 
d="M576 226h-354q-6 36 -6 57q0 24 6 59l192 1q-12 62 -55 83q-23 11 -50 11q-22 0 -43 -8q-77 -30 -77 -150q0 -71 27 -116q32 -53 98 -53q70 0 100 59l156 -11q-64 -173 -260 -173q-173 0 -243 136q-34 66 -34 148q0 125 77 207t202 82q162 0 228 -140q36 -76 36 -192z
M185 590l75 115h107l67 -115l-84 10l-38 64l-39 -64z" />
    <glyph glyph-name="edieresis" unicode="&#xeb;" 
d="M576 226h-354q-6 36 -6 57q0 24 6 59l192 1q-3 16 -10 34q-14 34 -45 49q-23 11 -50 11q-22 0 -43 -8q-77 -30 -77 -150q0 -108 58 -149q29 -20 67 -20q50 0 80 30q11 11 20 29l156 -11q-30 -81 -92 -125q-67 -48 -168 -48q-77 0 -137 30q-69 34 -106 106q-34 66 -34 148
q0 120 72 201q78 88 207 88q162 0 228 -140q19 -39 27 -87q9 -51 9 -105zM125 729h139v-125h-139v125zM345 729h137v-125h-137v125z" />
    <glyph glyph-name="igrave" unicode="&#xec;" horiz-adv-x="271" 
d="M57 0v542h155v-542h-155zM-11 741h147l42 -128h-84z" />
    <glyph glyph-name="iacute" unicode="&#xed;" horiz-adv-x="271" 
d="M57 0v542h155v-542h-155zM91 613l41 128h138l-95 -128h-84z" />
    <glyph glyph-name="icircumflex" unicode="&#xee;" horiz-adv-x="271" 
d="M58 0v542h154v-542h-154zM-29 601l96 151h142l89 -151h-112l-50 85l-50 -85h-115z" />
    <glyph glyph-name="idieresis" unicode="&#xef;" horiz-adv-x="271" 
d="M58 0v542h154v-542h-154zM-42 729h139v-125h-139v125zM178 729h137v-125h-137v125z" />
    <glyph glyph-name="ntilde" unicode="&#xf1;" 
d="M56 0v542h157v-542h-157zM549 334v-334h-157v326q0 22 -7 45q-20 48 -74 48q-43 0 -73 -36l1 123q57 45 123 45q98 0 150 -72q37 -52 37 -145zM389 750h67q6 -91 -13 -119.5t-55 -28.5q-18 0 -62 18q-63 26 -71 26q-28 0 -27 -43h-71q-4 75 8 101q17 48 69 48q11 0 23 -3
q30 -12 81 -33q9 -6 21 -6q30 0 30 40z" />
    <glyph glyph-name="ograve" unicode="&#xf2;" horiz-adv-x="625" 
d="M301 559v-124q-112 -20 -112 -163q0 -72 30 -115q26 -37 82 -48v-126q-50 3 -81 12q-65 19 -110 64q-78 78 -79 212q-1 67 24 125q62 147 246 163zM327 435v124q120 -8 189 -76q80 -79 79 -207q0 -92 -46 -165q-47 -76 -131 -107q-43 -16 -91 -19v125q15 3 49 19
q60 40 60 149q0 144 -109 157zM167 752h147l42 -128h-84z" />
    <glyph glyph-name="oacute" unicode="&#xf3;" horiz-adv-x="625" 
d="M301 559v-124q-112 -20 -112 -163q0 -72 30 -115q26 -37 82 -48v-126q-50 3 -81 12q-65 19 -110 64q-78 78 -79 212q-1 67 24 125q62 147 246 163zM327 435v124q120 -8 189 -76q80 -79 79 -207q0 -92 -46 -165q-47 -76 -131 -107q-43 -16 -91 -19v125q15 3 49 19
q60 40 60 149q0 144 -109 157zM272 624l41 128h138l-95 -128h-84z" />
    <glyph glyph-name="ocircumflex" unicode="&#xf4;" horiz-adv-x="625" 
d="M301 559v-124q-112 -20 -112 -163q0 -72 30 -115q26 -37 82 -48v-126q-50 3 -81 12q-65 19 -110 64q-78 78 -79 212q-1 67 24 125q62 147 246 163zM327 435v124q120 -8 189 -76q80 -79 79 -207q0 -92 -46 -165q-47 -76 -131 -107q-43 -16 -91 -19v125q15 3 49 19
q60 40 60 149q0 144 -109 157zM187 590l75 115h107l67 -115l-84 10l-38 64l-39 -64z" />
    <glyph glyph-name="otilde" unicode="&#xf5;" horiz-adv-x="625" 
d="M301 559v-124q-112 -20 -112 -163q0 -72 30 -115q26 -37 82 -48v-126q-50 3 -81 12q-65 19 -110 64q-78 78 -79 212q-1 67 24 125q62 147 246 163zM327 435v124q120 -8 189 -76q80 -79 79 -207q0 -92 -46 -165q-47 -76 -131 -107q-43 -16 -91 -19v125q15 3 49 19
q60 40 60 149q0 144 -109 157zM403 729h51q-30 -63 -58 -85q-21 -16 -51 -20q-10 0 -40 13q-9 7 -20 11q-15 8 -21 8q-22 0 -37 -31l-55 1q28 52 47 72q33 33 70 34q12 0 32 -10q16 -8 31 -16q11 -5 14 -5q28 0 37 28z" />
    <glyph glyph-name="odieresis" unicode="&#xf6;" horiz-adv-x="625" 
d="M135 734h139v-125h-139v125zM355 734h138v-125h-138v125zM301 559v-124q-45 -8 -71 -34q-41 -42 -41 -129q0 -72 30 -115q13 -18 27 -28q19 -13 55 -20v-126q-49 3 -81 12q-65 19 -110 64q-78 79 -79 212q-1 67 24 125q62 147 246 163zM327 435v124q45 -3 80 -13
q65 -19 109 -63q80 -79 79 -207q0 -92 -46 -165q-47 -76 -131 -107q-44 -16 -91 -19v125q15 3 49 19q60 40 60 149q0 76 -32 116q-19 24 -46 34q-14 5 -31 7z" />
    <glyph glyph-name="oslash" unicode="&#xf8;" horiz-adv-x="625" 
d="M298 561v-122q-54 -6 -84 -46q-34 -44 -34 -117q0 -33 7 -68q3 -7 6 -18l198 224q-17 11 -25 15q-19 8 -42 10v122q80 -2 156 -47l62 70l45 -40l-60 -71q67 -97 67 -198q0 -85 -38 -152q-40 -71 -113 -107q-50 -24 -119 -31v125q31 3 55 19q63 41 63 146q0 51 -15 86
l-197 -223q3 -2 11 -8q18 -13 57 -20v-125q-87 5 -158 51l-61 -69l-47 41l62 72q-66 84 -65 188q1 81 29 142q46 100 152 135q45 15 88 16z" />
    <glyph glyph-name="ugrave" unicode="&#xf9;" 
d="M56 542h156v-312q0 -118 84 -116q40 1 71 31v-116q-70 -43 -129 -43q-132 0 -168 112q-14 44 -14 124v320zM393 0v542h155v-542h-155zM153 728h147l42 -128h-84z" />
    <glyph glyph-name="uacute" unicode="&#xfa;" 
d="M56 542h156v-312q0 -118 84 -116q40 1 71 31v-116q-70 -43 -129 -43q-132 0 -168 112q-14 44 -14 124v320zM393 0v542h155v-542h-155zM258 600l41 128h138l-95 -128h-84z" />
    <glyph glyph-name="ucircumflex" unicode="&#xfb;" 
d="M56 542h156v-312q0 -73 32 -98q24 -19 52 -18q40 1 71 31v-116q-70 -43 -129 -43q-50 0 -91 20q-57 28 -77 92q-14 43 -14 124v320zM393 0v542h155v-542h-155zM137 601l97 151h142l89 -151h-112l-50 85l-51 -85h-115z" />
    <glyph glyph-name="udieresis" unicode="&#xfc;" 
d="M126 608v125h139v-125h-139zM346 608v125h137v-125h-137zM56 542h156v-312q0 -73 32 -98q24 -19 52 -18q40 1 71 31v-116q-70 -43 -129 -43q-50 0 -91 20q-57 28 -77 92q-14 43 -14 124v320zM393 0v542h155v-542h-155z" />
    <glyph glyph-name="yacute" unicode="&#xfd;" horiz-adv-x="521" 
d="M-1 542h169l161 -573q-18 -45 -29 -63q-19 -34 -47 -50q-39 -22 -142 -22h-61v123q80 0 92 5q37 15 37 62q0 14 -5 28zM278 247l79 295h165l-179 -528zM222 600l41 128h138l-95 -128h-84z" />
    <glyph glyph-name="ydieresis" unicode="&#xff;" horiz-adv-x="521" 
d="M-1 542h169l161 -573q-21 -53 -35 -74q-16 -25 -41 -39q-38 -22 -142 -22h-61v123q79 0 92 5q22 9 29.5 28t7.5 34q0 14 -5 28zM278 247l79 295h165l-179 -528zM83 729h139v-125h-139v125zM303 729h137v-125h-137v125z" />
    <glyph glyph-name="glyph271" unicode="&#x102;" horiz-adv-x="667" 
d="M-6 0l244 706h180l250 -706h-179l-46 150h-198l38 130h121l-51 168q-9 31 -24 103q-5 -28 -23 -99l-133 -452h-179zM200 872l91 -10l39 -67l41 67l91 10l-77 -122h-113z" />
    <glyph glyph-name="glyph272" unicode="&#x103;" horiz-adv-x="583" 
d="M346 351v-106q-53 -10 -96 -21q-68 -18 -68 -64q0 -28 23 -43q20 -14 49 -14q51 0 92 29q-3 -25 -3 -53q0 -8 2 -28.5t1 -31.5q-13 -10 -23 -15q-48 -23 -110 -23q-123 0 -170 96q-17 35 -17 78q0 133 158 166q45 8 162 30zM525 340v-234q0 -66 20 -106h-164
q-12 33 -12 81v276q0 44 -18.5 61.5t-62.5 16.5q-73 -1 -88 -48q-1 -7 -3 -20h-142q3 60 33 104q58 84 200 84q181 0 224 -118q13 -36 13 -97zM164 715l87 -10l37 -63l39 63l86 10l-73 -116h-107z" />
    <glyph glyph-name="Cacute" unicode="&#x106;" horiz-adv-x="711" 
d="M372 719l-1 -131q-169 -17 -169 -244q0 -39 6 -69q22 -109 107 -144q25 -11 57 -12l-1 -134q-53 3 -82 10q-64 14 -116 52q-142 104 -142 307q0 130 64 224q93 136 277 141zM399 588v131q121 -3 199 -68q44 -36 66 -80q17 -33 25 -79l-160 -12q-4 16 -8 26q-7 18 -21 34
q-36 42 -101 48zM399 -15v134q26 3 45 10q60 22 82 81q6 15 8 37l166 -10q-7 -37 -14 -59q-15 -45 -43 -82q-76 -100 -244 -111zM165 861l45 149h164l-111 -149h-98z" />
    <glyph glyph-name="cacute" unicode="&#x107;" horiz-adv-x="441" 
d="M291 558v-125q-98 -16 -98 -161q0 -96 49 -134q20 -15 49 -21v-132q-110 4 -175 65q-83 78 -83 218q0 222 189 280q33 9 69 10zM405 208l152 -7q-6 -42 -22 -78q-45 -99 -150 -128q-15 -4 -68 -10l1 131q8 1 29 7q41 17 58 85zM317 433l1 126q164 -3 219 -141
q10 -26 16 -63l-151 -7q-3 15 -7 27q-17 45 -78 58zM-34 606l45 149h164l-111 -149h-98z" />
    <glyph glyph-name="Ccaron" unicode="&#x10c;" horiz-adv-x="711" 
d="M372 719l-1 -131q-169 -17 -169 -244q0 -39 6 -69q22 -109 107 -144q25 -11 57 -12l-1 -134q-53 3 -82 10q-64 14 -116 52q-142 104 -142 307q0 130 64 224q93 136 277 141zM399 588v131q121 -3 199 -68q44 -36 66 -80q17 -33 25 -79l-160 -12q-4 16 -8 26q-7 18 -21 34
q-36 42 -101 48zM399 -15v134q26 3 45 10q60 22 82 81q6 15 8 37l166 -10q-7 -37 -14 -59q-15 -45 -43 -82q-76 -100 -244 -111zM66 1009h113l49 -84l51 84h114l-96 -152h-142z" />
    <glyph glyph-name="ccaron" unicode="&#x10d;" horiz-adv-x="441" 
d="M291 558v-125q-98 -16 -98 -161q0 -96 49 -134q20 -15 49 -21v-132q-110 4 -175 65q-83 78 -83 218q0 222 189 280q33 9 69 10zM405 208l152 -7q-6 -42 -22 -78q-45 -99 -150 -128q-15 -4 -68 -10l1 131q8 1 29 7q41 17 58 85zM317 433l1 126q164 -3 219 -141
q10 -26 16 -63l-151 -7q-3 15 -7 27q-17 45 -78 58zM-133 754h113l49 -84l51 84h114l-96 -152h-142z" />
    <glyph glyph-name="Dslash" unicode="&#x110;" horiz-adv-x="688" 
d="M240 0l1 131q32 -2 67 0q62 3 94 21q38 22 60.5 75t22.5 131q0 172 -108 205q-30 9 -137 12v131h103q21 0 47 -4q127 -19 195.5 -114.5t68.5 -235.5q0 -97 -40 -181q-45 -95 -125 -135q-70 -36 -181 -36h-68zM54 419v287h161v-287h91v-120h-91v-299h-161v299h-41v120h41z
" />
    <glyph glyph-name="dcroat" unicode="&#x111;" 
d="M547 587v-587h-154v587h-126v83h126v46h154v-46h36v-83h-36zM367 532v-130q-30 27 -67 27q-18 0 -30 -4q-81 -26 -81 -155q0 -63 23 -104q29 -52 87 -51q35 0 57 17q7 4 11 10v-130q-54 -27 -102 -27q-112 0 -176 89q-58 79 -58 195q0 177 117 253q54 35 120 35
q46 0 99 -25z" />
    <glyph glyph-name="Gbreve" unicode="&#x11e;" horiz-adv-x="767" 
d="M372 724l-1 -134q-19 -1 -35 -6q-51 -15 -84.5 -57.5t-43.5 -96.5q-6 -30 -6 -69q0 -160 86 -217q32 -21 84 -25l-1 -137q-146 -4 -231 78q-104 101 -104 286q0 151 72 248q93 125 264 130zM384 265v129h317l-5 -394h-112l-9 85q-14 -21 -41 -43q-53 -45 -136 -57l1 133
q30 5 37 7q27 7 51 24q49 34 73 116h-176zM398 590l1 135q96 -2 169 -43q93 -53 122 -157q4 -15 8 -40l-154 -9q-13 36 -25 54q-35 51 -121 60zM259 255v761h375v-761h-375zM321 318h250v636h-250v-636z" />
    <glyph glyph-name="gbreve" unicode="&#x11f;" horiz-adv-x="492" 
d="M386 505v-120q-35 45 -85 45q-23 0 -45 -9q-74 -30 -74 -124q0 -31 9 -57q27 -77 104 -77q39 0 73 28q9 7 18 20v-138q-61 -40 -126 -40q-62 0 -110 26q-73 39 -102 128q-17 50 -17 106q0 94 46 164q66 100 183 100q74 0 126 -52zM59 -9h165q2 -10 10 -20q23 -30 77 -30
q81 0 97 62q5 19 5 50v489h155v-468q0 -12 -2 -48q-2 -32 -7 -53q-10 -43 -36 -74q-66 -79 -227 -79q-97 0 -158 38q-29 18 -48 46.5t-31 86.5zM59 0v761h375v-761h-375zM121 63h250v636h-250v-636z" />
    <glyph glyph-name="glyph273" unicode="&#x128;" horiz-adv-x="271" 
d="M55 0v706h159v-706h-159zM226 901h53q-24 -51 -43 -72q-29 -34 -71 -39q-14 0 -42 14q-9 6 -21 11q-20 9 -23 9q-22 0 -39 -33l-57 1l25 46q40 65 98 66q7 0 66 -28q11 -5 15 -5q11 0 23.5 9.5t15.5 20.5z" />
    <glyph glyph-name="glyph274" unicode="&#x129;" horiz-adv-x="271" 
d="M57 0v542h155v-542h-155zM225 719h51q-30 -63 -58 -85q-21 -16 -51 -20q-10 0 -40 13q-9 7 -20 11q-15 8 -21 8q-22 0 -37 -31l-55 1q28 52 47 72q33 33 70 34q12 0 32 -10q16 -8 31 -16q11 -5 14 -5q28 0 37 28z" />
    <glyph glyph-name="Idotaccent" unicode="&#x130;" horiz-adv-x="429" 
d="M55 0v706h159v-706h-159zM90 255v761h375v-761h-375zM152 318h250v636h-250v-636z" />
    <glyph glyph-name="dotlessi" unicode="&#x131;" horiz-adv-x="271" 
d="M58 0v542h154v-542h-154z" />
    <glyph glyph-name="OE" unicode="&#x152;" horiz-adv-x="1062" 
d="M344 723v-141q-40 -8 -71 -35q-70 -60 -70 -198q0 -91 37 -148q15 -23 35 -39q24 -19 69 -32v-146q-99 0 -169 46q-105 69 -132 231q-8 48 -8 99q0 105 38 188q44 96 129 141q64 34 142 34zM517 213v292q-25 38 -51 55q-39 26 -95 26v137q80 -4 146 -45v28h157v-706h-157
l-1 34q-47 -25 -69 -33q-30 -11 -76 -15v142q72 -1 119 49zM700 0v134h337v-134h-337zM700 308v127h302v-127h-302zM700 578v128h326v-128h-326z" />
    <glyph glyph-name="oe" unicode="&#x153;" horiz-adv-x="1000" 
d="M297 557v-124q-16 -3 -52 -20q-55 -38 -55 -138q0 -106 59 -145q19 -13 48 -16v-129q-19 1 -73 11q-84 24 -136 93q-56 74 -56 180q0 122 69 200q23 27 60 48q64 37 136 40zM323 433v125q22 -1 54 -8q68 -15 126 -63q22 20 39 31q66 43 156 43q141 0 215 -106
q52 -74 58 -229l-362 1q-7 30 -7 58q0 26 7 59h198q-1 8 -6 27q-27 68 -104 68q-57 0 -88.5 -41.5t-31.5 -115.5q0 -83 35 -129q19 -25 49 -35q21 -7 44 -7q54 0 86 34q8 8 16 22l157 -8q-14 -34 -30 -59q-30 -45 -72 -73q-67 -44 -159 -43q-104 1 -169 47q-7 5 -32 28
q-82 -64 -179 -73v127q44 10 65 33q40 44 40 129q0 112 -67 146q-14 7 -38 12z" />
    <glyph glyph-name="Scedilla" unicode="&#x15e;" horiz-adv-x="656" 
d="M27 223l158 8q2 -21 5 -33q8 -28 27 -46q33 -31 105 -38l-1 -133q-35 0 -74 6q-91 14 -143 58q-73 62 -77 178zM322 722l-1 -127q-2 0 -16 -1q-96 -4 -95 -71q0 -18 10 -32q15 -23 74 -37l109 -26q103 -25 153 -62q12 -9 29 -26q42 -52 42 -129q0 -72 -37 -126
q-70 -102 -241 -102v133q23 0 47 6q68 17 68 74q0 21 -11 37q-19 28 -67 39l-143 33q-39 9 -78 27q-116 54 -116 180q0 76 45 129q41 48 118 68q46 12 110 13zM348 593l1 129q121 0 193 -62q59 -51 73 -161l-157 -11q0 44 -26 72q-12 13 -38 23t-46 10zM13 -237l64 84h-42
v104h123v-104l-66 -84h-79z" />
    <glyph glyph-name="scedilla" unicode="&#x15f;" horiz-adv-x="383" 
d="M31 186l149 4q0 -18 9 -39q17 -39 76 -50l-1 -116q-126 8 -184 72q-30 33 -41 74q-4 16 -8 55zM265 560l-1 -113q-67 -6 -67 -46q0 -15 11 -24q15 -13 57 -22l79 -18q32 -7 54 -14q131 -40 131 -158q0 -48 -25 -89q-57 -92 -212 -91v114q80 5 80 52q0 12 -6 21
q-12 18 -63 31l-101 25q-58 14 -90 35q-63 41 -63 124q1 120 123 159q29 9 93 14zM292 445v114q60 -1 109 -22q65 -28 93 -84q14 -29 20 -78l-146 -7q-1 15 -4 25q-12 42 -72 52zM-84 -237l64 84h-42v104h123v-104l-66 -84h-79z" />
    <glyph glyph-name="ch903" unicode="&#x168;" horiz-adv-x="667" 
d="M48 706h160v-433q0 -66 14 -97q24 -52 97 -57l-1 -136q-138 0 -209 69q-61 59 -61 205v449zM345 -16v135q93 11 107 89q4 22 4 71v427h160v-428q0 -84 -9 -123q-21 -91 -96 -132q-60 -33 -166 -39zM428 881h53q-24 -51 -43 -72q-29 -34 -71 -39q-14 0 -42 14q-9 6 -21 11
q-20 9 -23 9q-22 0 -39 -33l-57 1l25 46q40 65 98 66q7 0 66 -28q11 -5 15 -5q11 0 23.5 9.5t15.5 20.5z" />
    <glyph glyph-name="ch904" unicode="&#x169;" 
d="M56 542h156v-312q0 -118 84 -116q40 1 71 31v-116q-70 -43 -129 -43q-132 0 -168 112q-14 44 -14 124v320zM393 0v542h155v-542h-155zM392 719h51q-30 -63 -58 -85q-21 -16 -51 -20q-10 0 -40 13q-9 7 -20 11q-15 8 -21 8q-22 0 -37 -31l-55 1q28 52 47 72q33 33 70 34
q12 0 32 -10q16 -8 31 -16q11 -5 14 -5q28 0 37 28z" />
    <glyph glyph-name="Ydieresis" unicode="&#x178;" horiz-adv-x="625" 
d="M-5 706h177l219 -442v-264h-159v264zM328 452l126 254h176l-223 -415zM127 770v126h130v-126h-130zM362 770v126h130v-126h-130z" />
    <glyph glyph-name="glyph277" unicode="&#x1a0;" horiz-adv-x="771" 
d="M570 677l49 47l-26 4l14 52h74l-12 -75l-81 -39q8 -6 28 -22q118 -102 118 -287q0 -129 -63 -224q-90 -136 -274 -146v135q170 23 170 233q0 115 -54 178q-42 49 -116 58v135q45 -3 72 -9q54 -11 101 -40zM370 725v-134q-48 -6 -80 -27q-91 -59 -90 -207q1 -147 87 -207
q30 -21 83 -28v-135q-176 3 -270 141q-67 98 -67 229q0 158 89 259q92 105 248 109z" />
    <glyph glyph-name="glyph278" unicode="&#x1a1;" horiz-adv-x="625" 
d="M495 502q14 -12 21 -19q80 -80 79 -207q0 -92 -46 -165q-47 -76 -131 -107q-43 -16 -91 -19v125q15 3 49 19q60 40 60 149q0 144 -109 157v124q36 -3 63 -9q50 -11 89 -37l43 40l-21 4l13 47l67 -11l-14 -52zM301 559v-124q-112 -20 -112 -163q0 -72 30 -115
q26 -37 82 -48v-126q-50 3 -81 12q-65 19 -110 64q-78 78 -79 212q-1 67 24 125q62 147 246 163z" />
    <glyph glyph-name="glyph279" unicode="&#x1af;" horiz-adv-x="667" 
d="M616 669v-391q0 -84 -9 -123q-21 -91 -96 -132q-60 -33 -166 -39v135q93 11 107 89q4 22 4 71v427h160v-1l15 23h-26v52h74v-62zM48 706h160v-433q0 -66 14 -97q24 -52 97 -57l-1 -136q-138 0 -209 69q-61 59 -61 205v449z" />
    <glyph glyph-name="glyph280" unicode="&#x1b0;" 
d="M548 505v-505h-155v542l155 -4l16 15l-21 4l13 47l62 -11l-14 -52zM56 542h156v-312q0 -118 84 -116q40 1 71 31v-116q-70 -43 -129 -43q-132 0 -168 112q-14 44 -14 124v320z" />
    <glyph glyph-name="circumflex" unicode="&#x2c6;" horiz-adv-x="292" 
d="M-113 601l97 151h142l89 -151h-112l-50 85l-51 -85h-115z" />
    <glyph glyph-name="caron" unicode="&#x2c7;" horiz-adv-x="292" 
d="M-111 754h113l49 -84l51 84h114l-96 -152h-142z" />
    <glyph glyph-name="tilde" unicode="&#x2dc;" horiz-adv-x="292" 
d="M139 750h67q6 -91 -13 -119.5t-55 -28.5q-18 0 -62 18q-63 26 -71 26q-28 0 -27 -43h-71q-4 75 8 101q17 48 69 48q11 0 23 -3q30 -12 81 -33q9 -6 21 -6q30 0 30 40z" />
    <glyph glyph-name="glyph281" unicode="&#x1ea0;" horiz-adv-x="667" 
d="M-6 0l244 706h180l250 -706h-179l-46 150h-198l38 130h121l-51 168q-9 31 -24 103q-5 -28 -23 -99l-133 -452h-179zM267 -163v128h126v-128h-126z" />
    <glyph glyph-name="glyph282" unicode="&#x1ea1;" horiz-adv-x="583" 
d="M346 351v-106q-53 -10 -96 -21q-68 -18 -68 -64q0 -28 23 -43q20 -14 49 -14q51 0 92 29q-3 -25 -3 -53q0 -8 2 -28.5t1 -31.5q-13 -10 -23 -15q-48 -23 -110 -23q-123 0 -170 96q-17 35 -17 78q0 133 158 166q45 8 162 30zM525 340v-234q0 -66 20 -106h-164
q-12 33 -12 81v276q0 44 -18.5 61.5t-62.5 16.5q-73 -1 -88 -48q-1 -7 -3 -20h-142q3 60 33 104q58 84 200 84q181 0 224 -118q13 -36 13 -97zM226 -177v122h120v-122h-120z" />
    <glyph glyph-name="glyph283" unicode="&#x1ea2;" horiz-adv-x="667" 
d="M-6 0l244 706h180l250 -706h-179l-46 150h-198l38 130h121l-51 168q-9 31 -24 103q-5 -28 -23 -99l-133 -452h-179zM378 962l-14 -50q-7 -1 -10 0q-10 0 -27 -12q-18 -18 -18 -32l-58 5q28 90 109 90q9 0 18 -1zM374 910l14 51q65 -8 72 -53q3 -9 3 -19q0 -47 -44 -77
q-2 -2 -20 -14q-31 -16 -41 -48l-57 5q5 14 22 47q15 17 43 33q21 12 33 36q4 8 1 17q-2 19 -26 22z" />
    <glyph glyph-name="glyph284" unicode="&#x1ea3;" horiz-adv-x="583" 
d="M346 351v-106q-53 -10 -96 -21q-68 -18 -68 -64q0 -28 23 -43q20 -14 49 -14q51 0 92 29q-3 -25 -3 -53q0 -8 2 -28.5t1 -31.5q-13 -10 -23 -15q-48 -23 -110 -23q-123 0 -170 96q-17 35 -17 78q0 133 158 166q45 8 162 30zM525 340v-234q0 -66 20 -106h-164
q-12 33 -12 81v276q0 44 -18.5 61.5t-62.5 16.5q-73 -1 -88 -48q-1 -7 -3 -20h-142q3 60 33 104q58 84 200 84q181 0 224 -118q13 -36 13 -97zM334 816l-13 -47q-7 -1 -10 0q-9 0 -26 -12q-17 -17 -17 -30l-55 5q14 42 35 60q35 30 86 24zM330 767l13 48q62 -6 69 -50
q3 -9 3 -18q0 -45 -42 -73q-2 -2 -19 -13q-28 -9 -39 -46l-54 5q6 15 21 44q9 13 40 32q7 2 17 10q20 20 16 40q-3 18 -25 21z" />
    <glyph glyph-name="glyph285" unicode="&#x1ea4;" horiz-adv-x="667" 
d="M-6 0l244 706h180l250 -706h-179l-46 150h-198l38 130h121l-51 168q-9 31 -24 103q-5 -28 -23 -99l-133 -452h-179zM197 735l78 121h113l71 -121l-89 10l-40 68l-41 -68zM460 814l43 134h145l-100 -134h-88z" />
    <glyph glyph-name="glyph286" unicode="&#x1ea5;" horiz-adv-x="583" 
d="M346 351v-106q-53 -10 -96 -21q-68 -18 -68 -64q0 -28 23 -43q20 -14 49 -14q51 0 92 29q-3 -25 -3 -53q0 -8 2 -28.5t1 -31.5q-13 -10 -23 -15q-48 -23 -110 -23q-123 0 -170 96q-17 35 -17 78q0 133 158 166q45 8 162 30zM525 340v-234q0 -66 20 -106h-164
q-12 33 -12 81v276q0 44 -18.5 61.5t-62.5 16.5q-73 -1 -88 -48q-1 -7 -3 -20h-142q3 60 33 104q58 84 200 84q181 0 224 -118q13 -36 13 -97zM161 590l75 115h107l67 -115l-84 10l-38 64l-39 -64zM411 665l41 128h138l-95 -128h-84z" />
    <glyph glyph-name="glyph287" unicode="&#x1ea6;" horiz-adv-x="667" 
d="M-6 0l244 706h180l250 -706h-179l-46 150h-198l38 130h121l-51 168q-9 31 -24 103q-5 -28 -23 -99l-133 -452h-179zM197 735l78 121h113l71 -121l-89 10l-40 68l-41 -68zM-2 947h155l44 -134h-88z" />
    <glyph glyph-name="glyph288" unicode="&#x1ea7;" horiz-adv-x="583" 
d="M346 351v-106q-53 -10 -96 -21q-68 -18 -68 -64q0 -28 23 -43q20 -14 49 -14q51 0 92 29q-3 -25 -3 -53q0 -8 2 -28.5t1 -31.5q-13 -10 -23 -15q-48 -23 -110 -23q-123 0 -170 96q-17 35 -17 78q0 133 158 166q45 8 162 30zM525 340v-234q0 -66 20 -106h-164
q-12 33 -12 81v276q0 44 -18.5 61.5t-62.5 16.5q-73 -1 -88 -48q-1 -7 -3 -20h-142q3 60 33 104q58 84 200 84q181 0 224 -118q13 -36 13 -97zM162 590l74 115h107l68 -115l-85 10l-38 64l-39 -64zM-27 792h147l42 -128h-84z" />
    <glyph glyph-name="glyph289" unicode="&#x1ea8;" horiz-adv-x="667" 
d="M-6 0l244 706h180l250 -706h-179l-46 150h-198l38 130h121l-51 168q-9 31 -24 103q-5 -28 -23 -99l-133 -452h-179zM197 735l78 121h113l71 -121l-89 10l-40 68l-41 -68zM540 1023l-14 -50q-7 -1 -10 0q-10 0 -27 -12q-18 -18 -18 -32l-58 5q28 90 109 90q9 0 18 -1z
M536 971l14 51q65 -8 72 -53q3 -9 3 -19q0 -47 -44 -77q-2 -2 -20 -14q-31 -16 -41 -48l-57 5q5 14 22 47q15 17 43 33q21 12 33 36q4 8 1 17q-2 19 -26 22z" />
    <glyph glyph-name="glyph290" unicode="&#x1ea9;" horiz-adv-x="583" 
d="M346 351v-106q-53 -10 -96 -21q-68 -18 -68 -64q0 -28 23 -43q20 -14 49 -14q51 0 92 29q-3 -25 -3 -53q0 -8 2 -28.5t1 -31.5q-13 -10 -23 -15q-48 -23 -110 -23q-123 0 -170 96q-17 35 -17 78q0 133 158 166q45 8 162 30zM525 340v-234q0 -66 20 -106h-164
q-12 33 -12 81v276q0 44 -18.5 61.5t-62.5 16.5q-73 -1 -88 -48q-1 -7 -3 -20h-142q3 60 33 104q58 84 200 84q181 0 224 -118q13 -36 13 -97zM162 590l74 115h107l68 -115l-85 9l-38 65l-39 -65zM488 863l-13 -47q-7 -1 -10 0q-9 0 -26 -12q-17 -17 -17 -30l-55 5
q14 42 35 60q35 30 86 24zM484 814l13 48q62 -6 69 -50q3 -9 3 -18q0 -45 -42 -73q-2 -2 -19 -13q-28 -9 -39 -46l-54 5q6 15 21 44q9 13 40 32q7 2 17 10q20 20 16 40q-3 18 -25 21z" />
    <glyph glyph-name="glyph291" unicode="&#x1eaa;" horiz-adv-x="667" 
d="M-6 0l244 706h180l250 -706h-179l-46 150h-198l38 130h121l-51 168q-9 31 -24 103q-5 -28 -23 -99l-133 -452h-179zM197 735l78 121h113l71 -121l-89 10l-40 68l-41 -68zM424 1003h53q-24 -51 -43 -72q-29 -34 -71 -39q-14 0 -42 14q-9 6 -21 11q-20 9 -23 9
q-22 0 -39 -33l-57 1l25 46q40 65 98 66q7 0 66 -28q11 -5 15 -5q11 0 23.5 9.5t15.5 20.5z" />
    <glyph glyph-name="glyph292" unicode="&#x1eab;" horiz-adv-x="583" 
d="M346 351v-106q-53 -10 -96 -21q-68 -18 -68 -64q0 -28 23 -43q20 -14 49 -14q51 0 92 29q-3 -25 -3 -53q0 -8 2 -28.5t1 -31.5q-13 -10 -23 -15q-48 -23 -110 -23q-123 0 -170 96q-17 35 -17 78q0 133 158 166q45 8 162 30zM525 340v-234q0 -66 20 -106h-164
q-12 33 -12 81v276q0 44 -18.5 61.5t-62.5 16.5q-73 -1 -88 -48q-1 -7 -3 -20h-142q3 60 33 104q58 84 200 84q181 0 224 -118q13 -36 13 -97zM162 591l74 115h107l67 -115l-84 9l-38 65l-39 -65zM377 845h51q-30 -63 -58 -85q-21 -16 -51 -20q-10 0 -40 13q-9 7 -20 11
q-15 8 -21 8q-22 0 -37 -31l-55 1q28 52 47 72q33 33 70 34q12 0 32 -10q16 -8 31 -16q11 -5 14 -5q28 0 37 28z" />
    <glyph glyph-name="glyph293" unicode="&#x1eac;" horiz-adv-x="667" 
d="M-6 0l244 706h180l250 -706h-179l-46 150h-198l38 130h121l-51 168q-9 31 -24 103q-5 -28 -23 -99l-133 -452h-179zM197 735l78 121h113l71 -121l-89 10l-40 68l-41 -68zM267 -163v128h126v-128h-126z" />
    <glyph glyph-name="glyph294" unicode="&#x1ead;" horiz-adv-x="583" 
d="M346 351v-106q-53 -10 -96 -21q-68 -18 -68 -64q0 -28 23 -43q20 -14 49 -14q51 0 92 29q-3 -25 -3 -53q0 -8 2 -28.5t1 -31.5q-13 -10 -23 -15q-48 -23 -110 -23q-123 0 -170 96q-17 35 -17 78q0 133 158 166q45 8 162 30zM525 340v-234q0 -66 20 -106h-164
q-12 33 -12 81v276q0 44 -18.5 61.5t-62.5 16.5q-73 -1 -88 -48q-1 -7 -3 -20h-142q3 60 33 104q58 84 200 84q181 0 224 -118q13 -36 13 -97zM161 590l75 115h107l67 -115l-84 10l-38 64l-39 -64zM226 -177v122h120v-122h-120z" />
    <glyph glyph-name="glyph295" unicode="&#x1eae;" horiz-adv-x="667" 
d="M-6 0l244 706h180l250 -706h-179l-46 150h-198l38 130h121l-51 168q-9 31 -24 103q-5 -28 -23 -99l-133 -452h-179zM200 872l91 -10l39 -67l41 67l91 10l-77 -122h-113zM287 882l43 134h145l-100 -134h-88z" />
    <glyph glyph-name="glyph296" unicode="&#x1eaf;" horiz-adv-x="583" 
d="M346 351v-106q-53 -10 -96 -21q-68 -18 -68 -64q0 -28 23 -43q20 -14 49 -14q51 0 92 29q-3 -25 -3 -53q0 -8 2 -28.5t1 -31.5q-13 -10 -23 -15q-48 -23 -110 -23q-123 0 -170 96q-17 35 -17 78q0 133 158 166q45 8 162 30zM525 340v-234q0 -66 20 -106h-164
q-12 33 -12 81v276q0 44 -18.5 61.5t-62.5 16.5q-73 -1 -88 -48q-1 -7 -3 -20h-142q3 60 33 104q58 84 200 84q181 0 224 -118q13 -36 13 -97zM164 715l87 -10l37 -63l39 63l86 10l-73 -116h-107zM247 724l41 128h137l-95 -128h-83z" />
    <glyph glyph-name="glyph297" unicode="&#x1eb0;" horiz-adv-x="667" 
d="M-6 0l244 706h180l250 -706h-179l-46 150h-198l38 130h121l-51 168q-9 31 -24 103q-5 -28 -23 -99l-133 -452h-179zM200 872l91 -10l39 -67l41 67l91 10l-77 -122h-113zM174 1016h155l44 -134h-88z" />
    <glyph glyph-name="glyph298" unicode="&#x1eb1;" horiz-adv-x="583" 
d="M346 351v-106q-53 -10 -96 -21q-68 -18 -68 -64q0 -28 23 -43q20 -14 49 -14q51 0 92 29q-3 -25 -3 -53q0 -8 2 -28.5t1 -31.5q-13 -10 -23 -15q-48 -23 -110 -23q-123 0 -170 96q-17 35 -17 78q0 133 158 166q45 8 162 30zM525 340v-234q0 -66 20 -106h-164
q-12 33 -12 81v276q0 44 -18.5 61.5t-62.5 16.5q-73 -1 -88 -48q-1 -7 -3 -20h-142q3 60 33 104q58 84 200 84q181 0 224 -118q13 -36 13 -97zM164 716l86 -10l37 -63l39 63l87 10l-74 -116h-107zM139 853h147l42 -128h-83z" />
    <glyph glyph-name="glyph299" unicode="&#x1eb2;" horiz-adv-x="667" 
d="M-6 0l244 706h180l250 -706h-179l-46 150h-198l38 130h121l-51 168q-9 31 -24 103q-5 -28 -23 -99l-133 -452h-179zM200 872l91 -10l39 -67l41 67l91 10l-77 -122h-113zM373 1061l-12 -45q-6 -1 -9 0q-10 0 -25 -12q-16 -16 -16 -28l-52 5q15 44 41 62t73 18zM370 1014
l12 46q58 -6 65 -48q3 -8 3 -17q0 -41 -39 -70q-2 -1 -18 -11q-21 -13 -24 -17q-7 -7 -14 -27l-51 4l4 12q3 9 15 31q7 10 39 28q25 16 30 34q2 8 1 16q-2 16 -23 19z" />
    <glyph glyph-name="glyph300" unicode="&#x1eb3;" horiz-adv-x="583" 
d="M346 351v-106q-53 -10 -96 -21q-68 -18 -68 -64q0 -28 23 -43q20 -14 49 -14q51 0 92 29q-3 -25 -3 -53q0 -8 2 -28.5t1 -31.5q-13 -10 -23 -15q-48 -23 -110 -23q-123 0 -170 96q-17 35 -17 78q0 133 158 166q45 8 162 30zM525 340v-234q0 -66 20 -106h-164
q-12 33 -12 81v276q0 44 -18.5 61.5t-62.5 16.5q-73 -1 -88 -48q-1 -7 -3 -20h-142q3 60 33 104q58 84 200 84q181 0 224 -118q13 -36 13 -97zM165 716l86 -10l37 -64l39 64l86 10l-73 -116h-107zM331 907l-12 -45q-6 -1 -9 0q-10 0 -25 -12q-16 -16 -16 -28l-52 5
q15 44 41 62t73 18zM328 860l12 46q58 -6 65 -48q3 -8 3 -17q0 -41 -39 -70q-2 -1 -18 -11q-21 -13 -24 -17q-7 -7 -14 -27l-51 4l4 12q3 9 15 31q7 10 39 28q25 16 30 34q2 8 1 16q-2 16 -23 19z" />
    <glyph glyph-name="glyph301" unicode="&#x1eb4;" horiz-adv-x="667" 
d="M-6 0l244 706h180l250 -706h-179l-46 150h-198l38 130h121l-51 168q-9 31 -24 103q-5 -28 -23 -99l-133 -452h-179zM200 872l91 -10l39 -67l41 67l91 10l-77 -122h-113zM544 1003h53q-24 -51 -43 -72q-29 -34 -71 -39q-14 0 -42 14q-9 6 -21 11q-20 9 -23 9
q-22 0 -39 -33l-57 1l25 46q40 65 98 66q7 0 66 -28q11 -5 15 -5q11 0 23.5 9.5t15.5 20.5z" />
    <glyph glyph-name="glyph302" unicode="&#x1eb5;" horiz-adv-x="583" 
d="M346 351v-106q-53 -10 -96 -21q-68 -18 -68 -64q0 -28 23 -43q20 -14 49 -14q51 0 92 29q-3 -25 -3 -53q0 -8 2 -28.5t1 -31.5q-13 -10 -23 -15q-48 -23 -110 -23q-123 0 -170 96q-17 35 -17 78q0 133 158 166q45 8 162 30zM525 340v-234q0 -66 20 -106h-164
q-12 33 -12 81v276q0 44 -18.5 61.5t-62.5 16.5q-73 -1 -88 -48q-1 -7 -3 -20h-142q3 60 33 104q58 84 200 84q181 0 224 -118q13 -36 13 -97zM167 716l87 -10l37 -63l39 63l86 10l-73 -116h-107zM494 840h51q-22 -47 -41 -69q-28 -31 -68 -36q-14 0 -40 13q-9 7 -20 10
q-18 9 -21 9q-21 0 -37 -31l-55 1q10 19 24 44q39 61 93 62q7 0 15.5 -3.5t47.5 -23.5q8 -4 14 -4q11 0 22.5 8.5t14.5 19.5z" />
    <glyph glyph-name="glyph303" unicode="&#x1eb6;" horiz-adv-x="667" 
d="M-6 0l244 706h180l250 -706h-179l-46 150h-198l38 130h121l-51 168q-9 31 -24 103q-5 -28 -23 -99l-133 -452h-179zM200 872l91 -10l39 -67l41 67l91 10l-77 -122h-113zM267 -163v128h126v-128h-126z" />
    <glyph glyph-name="glyph304" unicode="&#x1eb7;" horiz-adv-x="583" 
d="M346 351v-106q-53 -10 -96 -21q-68 -18 -68 -64q0 -28 23 -43q20 -14 49 -14q51 0 92 29q-3 -25 -3 -53q0 -8 2 -28.5t1 -31.5q-13 -10 -23 -15q-48 -23 -110 -23q-123 0 -170 96q-17 35 -17 78q0 133 158 166q45 8 162 30zM525 340v-234q0 -66 20 -106h-164
q-12 33 -12 81v276q0 44 -18.5 61.5t-62.5 16.5q-73 -1 -88 -48q-1 -7 -3 -20h-142q3 60 33 104q58 84 200 84q181 0 224 -118q13 -36 13 -97zM226 -177v122h120v-122h-120zM164 715l87 -10l37 -63l39 63l86 10l-73 -116h-107z" />
    <glyph glyph-name="glyph305" unicode="&#x1eb8;" 
d="M55 0v706h160v-706h-160zM242 0v130h336v-130h-336zM242 309v127h304v-127h-304zM242 577v129h330v-129h-330zM248 -173v128h126v-128h-126z" />
    <glyph glyph-name="glyph306" unicode="&#x1eb9;" 
d="M576 226h-354q-6 36 -6 57q0 24 6 59l192 1q-12 62 -55 83q-23 11 -50 11q-22 0 -43 -8q-77 -30 -77 -150q0 -71 27 -116q32 -53 98 -53q70 0 100 59l156 -11q-64 -173 -260 -173q-173 0 -243 136q-34 66 -34 148q0 125 77 207t202 82q162 0 228 -140q36 -76 36 -192z
M249 -182v122h120v-122h-120z" />
    <glyph glyph-name="glyph307" unicode="&#x1eba;" 
d="M55 0v706h160v-706h-160zM242 0v130h336v-130h-336zM242 309v127h304v-127h-304zM242 577v129h330v-129h-330zM358 972l-14 -50q-7 -1 -10 0q-10 0 -27 -12q-18 -18 -18 -32l-58 5q28 90 109 90q9 0 18 -1zM354 920l14 51q65 -8 72 -53q3 -9 3 -19q0 -47 -44 -77
q-2 -2 -20 -14q-31 -16 -41 -48l-57 5q5 14 22 47q15 17 43 33q21 12 33 36q4 8 1 17q-2 19 -26 22z" />
    <glyph glyph-name="glyph308" unicode="&#x1ebb;" 
d="M576 226h-354q-6 36 -6 57q0 24 6 59l192 1q-12 62 -55 83q-23 11 -50 11q-22 0 -43 -8q-77 -30 -77 -150q0 -71 27 -116q32 -53 98 -53q70 0 100 59l156 -11q-64 -173 -260 -173q-173 0 -243 136q-34 66 -34 148q0 125 77 207t202 82q162 0 228 -140q36 -76 36 -192z
M358 816l-13 -47q-7 -1 -10 0q-9 0 -26 -12q-17 -17 -17 -30l-55 5q14 42 35 60q35 30 86 24zM354 767l13 48q62 -6 69 -50q3 -9 3 -18q0 -45 -42 -73q-2 -2 -19 -13q-28 -9 -39 -46l-54 5q6 15 21 44q9 13 40 32q7 2 17 10q20 20 16 40q-3 18 -25 21z" />
    <glyph glyph-name="glyph309" unicode="&#x1ebc;" 
d="M55 0v706h160v-706h-160zM242 0v130h336v-130h-336zM242 309v127h304v-127h-304zM242 577v129h330v-129h-330zM409 901h53q-24 -51 -43 -72q-29 -34 -71 -39q-14 0 -42 14q-9 6 -21 11q-20 9 -23 9q-22 0 -39 -33l-57 1l25 46q40 65 98 66q7 0 66 -28q11 -5 15 -5
q11 0 23.5 9.5t15.5 20.5z" />
    <glyph glyph-name="glyph310" unicode="&#x1ebd;" 
d="M576 226h-354q-6 36 -6 57q0 24 6 59l192 1q-12 62 -55 83q-23 11 -50 11q-22 0 -43 -8q-77 -30 -77 -150q0 -71 27 -116q32 -53 98 -53q70 0 100 59l156 -11q-64 -173 -260 -173q-173 0 -243 136q-34 66 -34 148q0 125 77 207t202 82q162 0 228 -140q36 -76 36 -192z
M401 729h51q-30 -63 -58 -85q-21 -16 -51 -20q-10 0 -40 13q-9 7 -20 11q-15 8 -21 8q-22 0 -37 -31l-55 1q28 52 47 72q33 33 70 34q12 0 32 -10q16 -8 31 -16q11 -5 14 -5q28 0 37 28z" />
    <glyph glyph-name="glyph311" unicode="&#x1ebe;" 
d="M55 0v706h160v-706h-160zM242 0v130h336v-130h-336zM242 309v127h304v-127h-304zM242 577v129h330v-129h-330zM177 750l78 121h113l71 -121l-89 10l-40 68l-41 -68zM440 829l43 134h145l-100 -134h-88z" />
    <glyph glyph-name="glyph312" unicode="&#x1ebf;" 
d="M576 226h-354q-6 36 -6 57q0 24 6 59l192 1q-12 62 -55 83q-23 11 -50 11q-22 0 -43 -8q-77 -30 -77 -150q0 -71 27 -116q32 -53 98 -53q70 0 100 59l156 -11q-64 -173 -260 -173q-173 0 -243 136q-34 66 -34 148q0 125 77 207t202 82q162 0 228 -140q36 -76 36 -192z
M185 590l75 115h107l67 -115l-84 10l-38 64l-39 -64zM435 665l41 128h138l-95 -128h-84z" />
    <glyph glyph-name="glyph313" unicode="&#x1ec0;" 
d="M55 0v706h160v-706h-160zM242 0v130h336v-130h-336zM242 309v127h304v-127h-304zM242 577v129h330v-129h-330zM177 750l78 121h113l71 -121l-89 10l-40 68l-41 -68zM-22 962h155l44 -134h-88z" />
    <glyph glyph-name="glyph314" unicode="&#x1ec1;" 
d="M576 226h-354q-6 36 -6 57q0 24 6 59l192 1q-12 62 -55 83q-23 11 -50 11q-22 0 -43 -8q-77 -30 -77 -150q0 -71 27 -116q32 -53 98 -53q70 0 100 59l156 -11q-64 -173 -260 -173q-173 0 -243 136q-34 66 -34 148q0 125 77 207t202 82q162 0 228 -140q36 -76 36 -192z
M186 590l74 115h107l68 -115l-85 10l-38 64l-39 -64zM-3 792h147l42 -128h-84z" />
    <glyph glyph-name="glyph315" unicode="&#x1ec2;" 
d="M55 0v706h160v-706h-160zM242 0v130h336v-130h-336zM242 309v127h304v-127h-304zM242 577v129h330v-129h-330zM177 750l78 121h113l71 -121l-89 10l-40 68l-41 -68zM520 1038l-14 -50q-7 -1 -10 0q-10 0 -27 -12q-18 -18 -18 -32l-58 5q28 90 109 90q9 0 18 -1zM516 986
l14 51q65 -8 72 -53q3 -9 3 -19q0 -47 -44 -77q-2 -2 -20 -14q-31 -16 -41 -48l-57 5q5 14 22 47q15 17 43 33q21 12 33 36q4 8 1 17q-2 19 -26 22z" />
    <glyph glyph-name="glyph316" unicode="&#x1ec3;" 
d="M576 226h-354q-6 36 -6 57q0 24 6 59l192 1q-12 62 -55 83q-23 11 -50 11q-22 0 -43 -8q-77 -30 -77 -150q0 -71 27 -116q32 -53 98 -53q70 0 100 59l156 -11q-64 -173 -260 -173q-173 0 -243 136q-34 66 -34 148q0 125 77 207t202 82q162 0 228 -140q36 -76 36 -192z
M186 590l74 115h107l68 -115l-85 9l-38 65l-39 -65zM512 863l-13 -47q-7 -1 -10 0q-9 0 -26 -12q-17 -17 -17 -30l-55 5q14 42 35 60q35 30 86 24zM508 814l13 48q62 -6 69 -50q3 -9 3 -18q0 -45 -42 -73q-2 -2 -19 -13q-28 -9 -39 -46l-54 5q6 15 21 44q9 13 40 32
q7 2 17 10q20 20 16 40q-3 18 -25 21z" />
    <glyph glyph-name="glyph317" unicode="&#x1ec4;" 
d="M55 0v706h160v-706h-160zM242 0v130h336v-130h-336zM242 309v127h304v-127h-304zM242 577v129h330v-129h-330zM177 750l78 121h113l71 -121l-89 10l-40 68l-41 -68zM404 1018h53q-24 -51 -43 -72q-29 -34 -71 -39q-14 0 -42 14q-9 6 -21 11q-20 9 -23 9q-22 0 -39 -33
l-57 1l25 46q40 65 98 66q7 0 66 -28q11 -5 15 -5q11 0 23.5 9.5t15.5 20.5z" />
    <glyph glyph-name="glyph318" unicode="&#x1ec5;" 
d="M576 226h-354q-6 36 -6 57q0 24 6 59l192 1q-12 62 -55 83q-23 11 -50 11q-22 0 -43 -8q-77 -30 -77 -150q0 -71 27 -116q32 -53 98 -53q70 0 100 59l156 -11q-64 -173 -260 -173q-173 0 -243 136q-34 66 -34 148q0 125 77 207t202 82q162 0 228 -140q36 -76 36 -192z
M185 591l74 115h107l67 -115l-84 9l-38 65l-39 -65zM400 845h51q-30 -63 -58 -85q-21 -16 -51 -20q-10 0 -40 13q-9 7 -20 11q-15 8 -21 8q-22 0 -37 -31l-55 1q28 52 47 72q33 33 70 34q12 0 32 -10q16 -8 31 -16q11 -5 14 -5q28 0 37 28z" />
    <glyph glyph-name="glyph319" unicode="&#x1ec6;" 
d="M55 0v706h160v-706h-160zM242 0v130h336v-130h-336zM242 309v127h304v-127h-304zM242 577v129h330v-129h-330zM177 750l78 121h113l71 -121l-89 10l-40 68l-41 -68zM248 -173v128h126v-128h-126z" />
    <glyph glyph-name="glyph320" unicode="&#x1ec7;" 
d="M576 226h-354q-6 36 -6 57q0 24 6 59l192 1q-12 62 -55 83q-23 11 -50 11q-22 0 -43 -8q-77 -30 -77 -150q0 -71 27 -116q32 -53 98 -53q70 0 100 59l156 -11q-64 -173 -260 -173q-173 0 -243 136q-34 66 -34 148q0 125 77 207t202 82q162 0 228 -140q36 -76 36 -192z
M185 590l75 115h107l67 -115l-84 10l-38 64l-39 -64zM249 -182v122h120v-122h-120z" />
    <glyph glyph-name="glyph321" unicode="&#x1ec8;" horiz-adv-x="271" 
d="M55 0v706h159v-706h-159zM181 972l-14 -50q-7 -1 -10 0q-10 0 -27 -12q-18 -18 -18 -32l-58 5q28 90 109 90q9 0 18 -1zM177 920l14 51q65 -8 72 -53q3 -9 3 -19q0 -47 -44 -77q-2 -2 -20 -14q-31 -16 -41 -48l-57 5q5 14 22 47q15 17 43 33q21 12 33 36q4 8 1 17
q-2 19 -26 22z" />
    <glyph glyph-name="glyph322" unicode="&#x1ec9;" horiz-adv-x="271" 
d="M57 0v542h155v-542h-155zM183 801l-13 -47q-7 -1 -10 0q-9 0 -26 -12q-17 -17 -17 -30l-55 5q14 42 35 60q35 30 86 24zM179 752l13 48q62 -6 69 -50q3 -9 3 -18q0 -45 -42 -73q-2 -2 -19 -13q-28 -9 -39 -46l-54 5q6 15 21 44q9 13 40 32q7 2 17 10q20 20 16 40
q-3 18 -25 21z" />
    <glyph glyph-name="glyph323" unicode="&#x1eca;" horiz-adv-x="271" 
d="M55 0v706h159v-706h-159zM72 -174v128h126v-128h-126z" />
    <glyph glyph-name="glyph324" unicode="&#x1ecb;" horiz-adv-x="271" 
d="M57 0v542h155v-542h-155zM76 599v104h117v-104h-117zM76 -177v122h120v-122h-120z" />
    <glyph glyph-name="glyph325" unicode="&#x1ecc;" horiz-adv-x="771" 
d="M370 725v-134q-48 -6 -80 -27q-91 -59 -90 -207q1 -147 87 -207q30 -21 83 -28v-135q-176 3 -270 141q-67 98 -67 229q0 158 89 259q92 105 248 109zM397 591v135q56 -4 92 -14q72 -20 127 -68q118 -103 118 -287q0 -129 -63 -224q-90 -136 -274 -146v135q170 23 170 233
q0 115 -54 178q-42 49 -116 58zM322 -188v128h126v-128h-126z" />
    <glyph glyph-name="glyph326" unicode="&#x1ecd;" horiz-adv-x="625" 
d="M301 559v-124q-112 -20 -112 -163q0 -72 30 -115q26 -37 82 -48v-126q-50 3 -81 12q-65 19 -110 64q-78 78 -79 212q-1 67 24 125q62 147 246 163zM327 435v124q120 -8 189 -76q80 -79 79 -207q0 -92 -46 -165q-47 -76 -131 -107q-43 -16 -91 -19v125q15 3 49 19
q60 40 60 149q0 144 -109 157zM251 -182v122h120v-122h-120z" />
    <glyph glyph-name="glyph327" unicode="&#x1ece;" horiz-adv-x="771" 
d="M370 725v-134q-48 -6 -80 -27q-91 -59 -90 -207q1 -147 87 -207q30 -21 83 -28v-135q-176 3 -270 141q-67 98 -67 229q0 158 89 259q92 105 248 109zM397 591v135q56 -4 92 -14q72 -20 127 -68q118 -103 118 -287q0 -129 -63 -224q-90 -136 -274 -146v135q170 23 170 233
q0 115 -54 178q-42 49 -116 58zM429 992l-14 -50q-7 -1 -10 0q-10 0 -27 -12q-18 -18 -18 -32l-58 5q28 90 109 90q9 0 18 -1zM425 940l14 51q65 -8 72 -53q3 -9 3 -19q0 -47 -44 -77q-2 -2 -20 -14q-31 -16 -41 -48l-57 5q5 14 22 47q15 17 43 33q21 12 33 36q4 8 1 17
q-2 19 -26 22z" />
    <glyph glyph-name="glyph328" unicode="&#x1ecf;" horiz-adv-x="625" 
d="M301 559v-124q-112 -20 -112 -163q0 -72 30 -115q26 -37 82 -48v-126q-50 3 -81 12q-65 19 -110 64q-78 78 -79 212q-1 67 24 125q62 147 246 163zM327 435v124q120 -8 189 -76q80 -79 79 -207q0 -92 -46 -165q-47 -76 -131 -107q-43 -16 -91 -19v125q15 3 49 19
q60 40 60 149q0 144 -109 157zM360 816l-13 -47q-7 -1 -10 0q-9 0 -26 -12q-17 -17 -17 -30l-55 5q14 42 35 60q35 30 86 24zM356 767l13 48q62 -6 69 -50q3 -9 3 -18q0 -45 -42 -73q-2 -2 -19 -13q-28 -9 -39 -46l-54 5q6 15 21 44q9 13 40 32q7 2 17 10q20 20 16 40
q-3 18 -25 21z" />
    <glyph glyph-name="glyph329" unicode="&#x1ed0;" horiz-adv-x="771" 
d="M370 725v-134q-48 -6 -80 -27q-91 -59 -90 -207q1 -147 87 -207q30 -21 83 -28v-135q-176 3 -270 141q-67 98 -67 229q0 158 89 259q92 105 248 109zM397 591v135q56 -4 92 -14q72 -20 127 -68q118 -103 118 -287q0 -129 -63 -224q-90 -136 -274 -146v135q170 23 170 233
q0 115 -54 178q-42 49 -116 58zM250 750l78 121h113l71 -121l-89 10l-40 68l-41 -68zM513 829l43 134h145l-100 -134h-88z" />
    <glyph glyph-name="glyph330" unicode="&#x1ed1;" horiz-adv-x="625" 
d="M301 559v-124q-112 -20 -112 -163q0 -72 30 -115q26 -37 82 -48v-126q-50 3 -81 12q-65 19 -110 64q-78 78 -79 212q-1 67 24 125q62 147 246 163zM327 435v124q120 -8 189 -76q80 -79 79 -207q0 -92 -46 -165q-47 -76 -131 -107q-43 -16 -91 -19v125q15 3 49 19
q60 40 60 149q0 144 -109 157zM187 590l75 115h107l67 -115l-84 10l-38 64l-39 -64zM437 665l41 128h138l-95 -128h-84z" />
    <glyph glyph-name="glyph331" unicode="&#x1ed2;" horiz-adv-x="771" 
d="M370 725v-134q-48 -6 -80 -27q-91 -59 -90 -207q1 -147 87 -207q30 -21 83 -28v-135q-176 3 -270 141q-67 98 -67 229q0 158 89 259q92 105 248 109zM397 591v135q56 -4 92 -14q72 -20 127 -68q118 -103 118 -287q0 -129 -63 -224q-90 -136 -274 -146v135q170 23 170 233
q0 115 -54 178q-42 49 -116 58zM250 750l78 121h113l71 -121l-89 10l-40 68l-41 -68zM51 962h155l44 -134h-88z" />
    <glyph glyph-name="glyph332" unicode="&#x1ed3;" horiz-adv-x="625" 
d="M301 559v-124q-112 -20 -112 -163q0 -72 30 -115q26 -37 82 -48v-126q-50 3 -81 12q-65 19 -110 64q-78 78 -79 212q-1 67 24 125q62 147 246 163zM327 435v124q120 -8 189 -76q80 -79 79 -207q0 -92 -46 -165q-47 -76 -131 -107q-43 -16 -91 -19v125q15 3 49 19
q60 40 60 149q0 144 -109 157zM188 590l74 115h107l68 -115l-85 10l-38 64l-39 -64zM-1 792h147l42 -128h-84z" />
    <glyph glyph-name="glyph333" unicode="&#x1ed4;" horiz-adv-x="771" 
d="M370 725v-134q-48 -6 -80 -27q-91 -59 -90 -207q1 -147 87 -207q30 -21 83 -28v-135q-176 3 -270 141q-67 98 -67 229q0 158 89 259q92 105 248 109zM397 591v135q56 -4 92 -14q72 -20 127 -68q118 -103 118 -287q0 -129 -63 -224q-90 -136 -274 -146v135q170 23 170 233
q0 115 -54 178q-42 49 -116 58zM250 750l78 121h113l71 -121l-89 10l-40 68l-41 -68zM593 1038l-14 -50q-7 -1 -10 0q-10 0 -27 -12q-18 -18 -18 -32l-58 5q28 90 109 90q9 0 18 -1zM589 986l14 51q65 -8 72 -53q3 -9 3 -19q0 -47 -44 -77q-2 -2 -20 -14q-31 -16 -41 -48
l-57 5q5 14 22 47q15 17 43 33q21 12 33 36q4 8 1 17q-2 19 -26 22z" />
    <glyph glyph-name="glyph334" unicode="&#x1ed5;" horiz-adv-x="625" 
d="M301 559v-124q-112 -20 -112 -163q0 -72 30 -115q26 -37 82 -48v-126q-50 3 -81 12q-65 19 -110 64q-78 78 -79 212q-1 67 24 125q62 147 246 163zM327 435v124q120 -8 189 -76q80 -79 79 -207q0 -92 -46 -165q-47 -76 -131 -107q-43 -16 -91 -19v125q15 3 49 19
q60 40 60 149q0 144 -109 157zM188 590l74 115h107l68 -115l-85 9l-38 65l-39 -65zM514 863l-13 -47q-7 -1 -10 0q-9 0 -26 -12q-17 -17 -17 -30l-55 5q14 42 35 60q35 30 86 24zM510 814l13 48q62 -6 69 -50q3 -9 3 -18q0 -45 -42 -73q-2 -2 -19 -13q-28 -9 -39 -46l-54 5
q6 15 21 44q9 13 40 32q7 2 17 10q20 20 16 40q-3 18 -25 21z" />
    <glyph glyph-name="glyph335" unicode="&#x1ed6;" horiz-adv-x="771" 
d="M370 725v-134q-48 -6 -80 -27q-91 -59 -90 -207q1 -147 87 -207q30 -21 83 -28v-135q-176 3 -270 141q-67 98 -67 229q0 158 89 259q92 105 248 109zM397 591v135q56 -4 92 -14q72 -20 127 -68q118 -103 118 -287q0 -129 -63 -224q-90 -136 -274 -146v135q170 23 170 233
q0 115 -54 178q-42 49 -116 58zM250 750l78 121h113l71 -121l-89 10l-40 68l-41 -68zM477 1018h53q-24 -51 -43 -72q-29 -34 -71 -39q-14 0 -42 14q-9 6 -21 11q-20 9 -23 9q-22 0 -39 -33l-57 1l25 46q40 65 98 66q7 0 66 -28q11 -5 15 -5q11 0 23.5 9.5t15.5 20.5z" />
    <glyph glyph-name="glyph336" unicode="&#x1ed7;" horiz-adv-x="625" 
d="M301 559v-124q-112 -20 -112 -163q0 -72 30 -115q26 -37 82 -48v-126q-50 3 -81 12q-65 19 -110 64q-78 78 -79 212q-1 67 24 125q62 147 246 163zM327 435v124q120 -8 189 -76q80 -79 79 -207q0 -92 -46 -165q-47 -76 -131 -107q-43 -16 -91 -19v125q15 3 49 19
q60 40 60 149q0 144 -109 157zM187 591l74 115h107l67 -115l-84 9l-38 65l-39 -65zM402 845h51q-30 -63 -58 -85q-21 -16 -51 -20q-10 0 -40 13q-9 7 -20 11q-15 8 -21 8q-22 0 -37 -31l-55 1q28 52 47 72q33 33 70 34q12 0 32 -10q16 -8 31 -16q11 -5 14 -5q28 0 37 28z
" />
    <glyph glyph-name="glyph337" unicode="&#x1ed8;" horiz-adv-x="771" 
d="M370 725v-134q-48 -6 -80 -27q-91 -59 -90 -207q1 -147 87 -207q30 -21 83 -28v-135q-176 3 -270 141q-67 98 -67 229q0 158 89 259q92 105 248 109zM397 591v135q56 -4 92 -14q72 -20 127 -68q118 -103 118 -287q0 -129 -63 -224q-90 -136 -274 -146v135q170 23 170 233
q0 115 -54 178q-42 49 -116 58zM250 750l78 121h113l71 -121l-89 10l-40 68l-41 -68zM322 -188v128h126v-128h-126z" />
    <glyph glyph-name="glyph338" unicode="&#x1ed9;" horiz-adv-x="625" 
d="M301 559v-124q-112 -20 -112 -163q0 -72 30 -115q26 -37 82 -48v-126q-50 3 -81 12q-65 19 -110 64q-78 78 -79 212q-1 67 24 125q62 147 246 163zM327 435v124q120 -8 189 -76q80 -79 79 -207q0 -92 -46 -165q-47 -76 -131 -107q-43 -16 -91 -19v125q15 3 49 19
q60 40 60 149q0 144 -109 157zM187 590l75 115h107l67 -115l-84 10l-38 64l-39 -64zM251 -182v122h120v-122h-120z" />
    <glyph glyph-name="glyph339" unicode="&#x1eda;" horiz-adv-x="771" 
d="M570 677l49 47l-26 4l14 52h74l-12 -75l-81 -39q8 -6 28 -22q118 -102 118 -287q0 -129 -63 -224q-90 -136 -274 -146v135q170 23 170 233q0 115 -54 178q-42 49 -116 58v135q45 -3 72 -9q54 -11 101 -40zM370 725v-134q-48 -6 -80 -27q-91 -59 -90 -207q1 -147 87 -207
q30 -21 83 -28v-135q-176 3 -270 141q-67 98 -67 229q0 158 89 259q92 105 248 109zM339 795l43 134h145l-100 -134h-88z" />
    <glyph glyph-name="glyph340" unicode="&#x1edb;" horiz-adv-x="625" 
d="M495 502q14 -12 21 -19q80 -80 79 -207q0 -92 -46 -165q-47 -76 -131 -107q-43 -16 -91 -19v125q15 3 49 19q60 40 60 149q0 144 -109 157v124q36 -3 63 -9q50 -11 89 -37l43 40l-21 4l13 47l67 -11l-14 -52zM301 559v-124q-112 -20 -112 -163q0 -72 30 -115
q26 -37 82 -48v-126q-50 3 -81 12q-65 19 -110 64q-78 78 -79 212q-1 67 24 125q62 147 246 163zM272 624l41 128h138l-95 -128h-84z" />
    <glyph glyph-name="glyph341" unicode="&#x1edc;" horiz-adv-x="771" 
d="M570 677l49 47l-26 4l14 52h74l-12 -75l-81 -39q8 -6 28 -22q118 -102 118 -287q0 -129 -63 -224q-90 -136 -274 -146v135q170 23 170 233q0 115 -54 178q-42 49 -116 58v135q45 -3 72 -9q54 -11 101 -40zM370 725v-134q-48 -6 -80 -27q-91 -59 -90 -207q1 -147 87 -207
q30 -21 83 -28v-135q-176 3 -270 141q-67 98 -67 229q0 158 89 259q92 105 248 109zM230 929h155l44 -134h-88z" />
    <glyph glyph-name="glyph342" unicode="&#x1edd;" horiz-adv-x="625" 
d="M495 502q14 -12 21 -19q80 -80 79 -207q0 -92 -46 -165q-47 -76 -131 -107q-43 -16 -91 -19v125q15 3 49 19q60 40 60 149q0 144 -109 157v124q36 -3 63 -9q50 -11 89 -37l43 40l-21 4l13 47l67 -11l-14 -52zM301 559v-124q-112 -20 -112 -163q0 -72 30 -115
q26 -37 82 -48v-126q-50 3 -81 12q-65 19 -110 64q-78 78 -79 212q-1 67 24 125q62 147 246 163zM167 752h147l42 -128h-84z" />
    <glyph glyph-name="glyph343" unicode="&#x1ede;" horiz-adv-x="771" 
d="M570 677l49 47l-26 4l14 52h74l-12 -75l-81 -39q8 -6 28 -22q118 -102 118 -287q0 -129 -63 -224q-90 -136 -274 -146v135q170 23 170 233q0 115 -54 178q-42 49 -116 58v135q45 -3 72 -9q54 -11 101 -40zM370 725v-134q-48 -6 -80 -27q-91 -59 -90 -207q1 -147 87 -207
q30 -21 83 -28v-135q-176 3 -270 141q-67 98 -67 229q0 158 89 259q92 105 248 109zM429 997l-14 -50q-7 -1 -10 0q-10 0 -27 -12q-18 -18 -18 -32l-58 5q28 90 109 90q9 0 18 -1zM425 945l14 51q65 -8 72 -53q3 -9 3 -19q0 -47 -44 -77q-2 -2 -20 -14q-31 -16 -41 -48
l-57 5q5 14 22 47q15 17 43 33q21 12 33 36q4 8 1 17q-2 19 -26 22z" />
    <glyph glyph-name="glyph344" unicode="&#x1edf;" horiz-adv-x="625" 
d="M495 502q14 -12 21 -19q80 -80 79 -207q0 -92 -46 -165q-47 -76 -131 -107q-43 -16 -91 -19v125q15 3 49 19q60 40 60 149q0 144 -109 157v124q36 -3 63 -9q50 -11 89 -37l43 40l-21 4l13 47l67 -11l-14 -52zM301 559v-124q-112 -20 -112 -163q0 -72 30 -115
q26 -37 82 -48v-126q-50 3 -81 12q-65 19 -110 64q-78 78 -79 212q-1 67 24 125q62 147 246 163zM360 816l-13 -47q-7 -1 -10 0q-9 0 -26 -12q-17 -17 -17 -30l-55 5q14 42 35 60q35 30 86 24zM356 767l13 48q62 -6 69 -50q3 -9 3 -18q0 -45 -42 -73q-2 -2 -19 -13
q-28 -9 -39 -46l-54 5q6 15 21 44q9 13 40 32q7 2 17 10q20 20 16 40q-3 18 -25 21z" />
    <glyph glyph-name="glyph345" unicode="&#x1ee0;" horiz-adv-x="771" 
d="M570 677l49 47l-26 4l14 52h74l-12 -75l-81 -39q8 -6 28 -22q118 -102 118 -287q0 -129 -63 -224q-90 -136 -274 -146v135q170 23 170 233q0 115 -54 178q-42 49 -116 58v135q45 -3 72 -9q54 -11 101 -40zM370 725v-134q-48 -6 -80 -27q-91 -59 -90 -207q1 -147 87 -207
q30 -21 83 -28v-135q-176 3 -270 141q-67 98 -67 229q0 158 89 259q92 105 248 109zM477 911h53q-24 -51 -43 -72q-29 -34 -71 -39q-14 0 -42 14q-9 6 -21 11q-20 9 -23 9q-22 0 -39 -33l-57 1l25 46q40 65 98 66q7 0 66 -28q11 -5 15 -5q11 0 23.5 9.5t15.5 20.5z" />
    <glyph glyph-name="glyph346" unicode="&#x1ee1;" horiz-adv-x="625" 
d="M495 502q14 -12 21 -19q80 -80 79 -207q0 -92 -46 -165q-47 -76 -131 -107q-43 -16 -91 -19v125q15 3 49 19q60 40 60 149q0 144 -109 157v124q36 -3 63 -9q50 -11 89 -37l43 40l-21 4l13 47l67 -11l-14 -52zM301 559v-124q-112 -20 -112 -163q0 -72 30 -115
q26 -37 82 -48v-126q-50 3 -81 12q-65 19 -110 64q-78 78 -79 212q-1 67 24 125q62 147 246 163zM403 729h51q-30 -63 -58 -85q-21 -16 -51 -20q-10 0 -40 13q-9 7 -20 11q-15 8 -21 8q-22 0 -37 -31l-55 1q28 52 47 72q33 33 70 34q12 0 32 -10q16 -8 31 -16q11 -5 14 -5
q28 0 37 28z" />
    <glyph glyph-name="glyph347" unicode="&#x1ee2;" horiz-adv-x="771" 
d="M570 677l49 47l-26 4l14 52h74l-12 -75l-81 -39q8 -6 28 -22q118 -102 118 -287q0 -129 -63 -224q-90 -136 -274 -146v135q170 23 170 233q0 115 -54 178q-42 49 -116 58v135q45 -3 72 -9q54 -11 101 -40zM370 725v-134q-48 -6 -80 -27q-91 -59 -90 -207q1 -147 87 -207
q30 -21 83 -28v-135q-176 3 -270 141q-67 98 -67 229q0 158 89 259q92 105 248 109zM322 -188v128h126v-128h-126z" />
    <glyph glyph-name="glyph348" unicode="&#x1ee3;" horiz-adv-x="625" 
d="M495 502q14 -12 21 -19q80 -80 79 -207q0 -92 -46 -165q-47 -76 -131 -107q-43 -16 -91 -19v125q15 3 49 19q60 40 60 149q0 144 -109 157v124q36 -3 63 -9q50 -11 89 -37l43 40l-21 4l13 47l67 -11l-14 -52zM301 559v-124q-112 -20 -112 -163q0 -72 30 -115
q26 -37 82 -48v-126q-50 3 -81 12q-65 19 -110 64q-78 78 -79 212q-1 67 24 125q62 147 246 163zM251 -182v122h120v-122h-120z" />
    <glyph glyph-name="glyph349" unicode="&#x1ee4;" horiz-adv-x="667" 
d="M48 706h160v-433q0 -66 14 -97q24 -52 97 -57l-1 -136q-138 0 -209 69q-61 59 -61 205v449zM345 -16v135q93 11 107 89q4 22 4 71v427h160v-428q0 -84 -9 -123q-21 -91 -96 -132q-60 -33 -166 -39zM269 -188v128h126v-128h-126z" />
    <glyph glyph-name="glyph350" unicode="&#x1ee5;" 
d="M56 542h156v-312q0 -118 84 -116q40 1 71 31v-116q-70 -43 -129 -43q-132 0 -168 112q-14 44 -14 124v320zM393 0v542h155v-542h-155zM244 -177v122h120v-122h-120z" />
    <glyph glyph-name="glyph351" unicode="&#x1ee6;" horiz-adv-x="667" 
d="M48 706h160v-433q0 -66 14 -97q24 -52 97 -57l-1 -136q-138 0 -209 69q-61 59 -61 205v449zM345 -16v135q93 11 107 89q4 22 4 71v427h160v-428q0 -84 -9 -123q-21 -91 -96 -132q-60 -33 -166 -39zM383 962l-14 -50q-7 -1 -10 0q-10 0 -27 -12q-18 -18 -18 -32l-58 5
q28 90 109 90q9 0 18 -1zM379 910l14 51q65 -8 72 -53q3 -9 3 -19q0 -47 -44 -77q-2 -2 -20 -14q-31 -16 -41 -48l-57 5q5 14 22 47q15 17 43 33q21 12 33 36q4 8 1 17q-2 19 -26 22z" />
    <glyph glyph-name="glyph352" unicode="&#x1ee7;" 
d="M56 542h156v-312q0 -118 84 -116q40 1 71 31v-116q-70 -43 -129 -43q-132 0 -168 112q-14 44 -14 124v320zM393 0v542h155v-542h-155zM348 791l-13 -47q-7 -1 -10 0q-9 0 -26 -12q-17 -17 -17 -30l-55 5q14 42 35 60q35 30 86 24zM344 742l13 48q62 -6 69 -50q3 -9 3 -18
q0 -45 -42 -73q-2 -2 -19 -13q-28 -9 -39 -46l-54 5q6 15 21 44q9 13 40 32q7 2 17 10q20 20 16 40q-3 18 -25 21z" />
    <glyph glyph-name="glyph353" unicode="&#x1ee8;" horiz-adv-x="667" 
d="M616 669v-391q0 -84 -9 -123q-21 -91 -96 -132q-60 -33 -166 -39v135q93 11 107 89q4 22 4 71v427h160v-1l15 23h-26v52h74v-62zM48 706h160v-433q0 -66 14 -97q24 -52 97 -57l-1 -136q-138 0 -209 69q-61 59 -61 205v449zM291 750l43 134h145l-100 -134h-88z" />
    <glyph glyph-name="glyph354" unicode="&#x1ee9;" 
d="M548 505v-505h-155v542l155 -4l16 15l-21 4l13 47l62 -11l-14 -52zM56 542h156v-312q0 -118 84 -116q40 1 71 31v-116q-70 -43 -129 -43q-132 0 -168 112q-14 44 -14 124v320zM258 600l41 128h138l-95 -128h-84z" />
    <glyph glyph-name="glyph355" unicode="&#x1eea;" horiz-adv-x="667" 
d="M616 669v-391q0 -84 -9 -123q-21 -91 -96 -132q-60 -33 -166 -39v135q93 11 107 89q4 22 4 71v427h160v-1l15 23h-26v52h74v-62zM48 706h160v-433q0 -66 14 -97q24 -52 97 -57l-1 -136q-138 0 -209 69q-61 59 -61 205v449zM179 884h155l44 -134h-88z" />
    <glyph glyph-name="glyph356" unicode="&#x1eeb;" 
d="M548 505v-505h-155v542l155 -4l16 15l-21 4l13 47l62 -11l-14 -52zM56 542h156v-312q0 -118 84 -116q40 1 71 31v-116q-70 -43 -129 -43q-132 0 -168 112q-14 44 -14 124v320zM153 728h147l42 -128h-84z" />
    <glyph glyph-name="glyph357" unicode="&#x1eec;" horiz-adv-x="667" 
d="M616 669v-391q0 -84 -9 -123q-21 -91 -96 -132q-60 -33 -166 -39v135q93 11 107 89q4 22 4 71v427h160v-1l15 23h-26v52h74v-62zM48 706h160v-433q0 -66 14 -97q24 -52 97 -57l-1 -136q-138 0 -209 69q-61 59 -61 205v449zM383 962l-14 -50q-7 -1 -10 0q-10 0 -27 -12
q-18 -18 -18 -32l-58 5q28 90 109 90q9 0 18 -1zM379 910l14 51q65 -8 72 -53q3 -9 3 -19q0 -47 -44 -77q-2 -2 -20 -14q-31 -16 -41 -48l-57 5q5 14 22 47q15 17 43 33q21 12 33 36q4 8 1 17q-2 19 -26 22z" />
    <glyph glyph-name="glyph358" unicode="&#x1eed;" 
d="M548 505v-505h-155v542l155 -4l16 15l-21 4l13 47l62 -11l-14 -52zM56 542h156v-312q0 -118 84 -116q40 1 71 31v-116q-70 -43 -129 -43q-132 0 -168 112q-14 44 -14 124v320zM348 791l-13 -47q-7 -1 -10 0q-9 0 -26 -12q-17 -17 -17 -30l-55 5q14 42 35 60q35 30 86 24z
M344 742l13 48q62 -6 69 -50q3 -9 3 -18q0 -45 -42 -73q-2 -2 -19 -13q-28 -9 -39 -46l-54 5q6 15 21 44q9 13 40 32q7 2 17 10q20 20 16 40q-3 18 -25 21z" />
    <glyph glyph-name="glyph359" unicode="&#x1eee;" horiz-adv-x="667" 
d="M616 669v-391q0 -84 -9 -123q-21 -91 -96 -132q-60 -33 -166 -39v135q93 11 107 89q4 22 4 71v427h160v-1l15 23h-26v52h74v-62zM48 706h160v-433q0 -66 14 -97q24 -52 97 -57l-1 -136q-138 0 -209 69q-61 59 -61 205v449zM428 891h53q-24 -51 -43 -72q-29 -34 -71 -39
q-14 0 -42 14q-9 6 -21 11q-20 9 -23 9q-22 0 -39 -33l-57 1l25 46q40 65 98 66q7 0 66 -28q11 -5 15 -5q11 0 23.5 9.5t15.5 20.5z" />
    <glyph glyph-name="glyph360" unicode="&#x1eef;" 
d="M548 505v-505h-155v542l155 -4l16 15l-21 4l13 47l62 -11l-14 -52zM56 542h156v-312q0 -118 84 -116q40 1 71 31v-116q-70 -43 -129 -43q-132 0 -168 112q-14 44 -14 124v320zM392 719h51q-30 -63 -58 -85q-21 -16 -51 -20q-10 0 -40 13q-9 7 -20 11q-15 8 -21 8
q-22 0 -37 -31l-55 1q28 52 47 72q33 33 70 34q12 0 32 -10q16 -8 31 -16q11 -5 14 -5q28 0 37 28z" />
    <glyph glyph-name="glyph361" unicode="&#x1ef0;" horiz-adv-x="667" 
d="M616 669v-391q0 -84 -9 -123q-21 -91 -96 -132q-60 -33 -166 -39v135q93 11 107 89q4 22 4 71v427h160v-1l15 23h-26v52h74v-62zM48 706h160v-433q0 -66 14 -97q24 -52 97 -57l-1 -136q-138 0 -209 69q-61 59 -61 205v449zM269 -188v128h126v-128h-126z" />
    <glyph glyph-name="glyph362" unicode="&#x1ef1;" 
d="M548 505v-505h-155v542l155 -4l16 15l-21 4l13 47l62 -11l-14 -52zM56 542h156v-312q0 -118 84 -116q40 1 71 31v-116q-70 -43 -129 -43q-132 0 -168 112q-14 44 -14 124v320zM244 -177v122h120v-122h-120z" />
    <glyph glyph-name="glyph363" unicode="&#x1ef2;" horiz-adv-x="625" 
d="M-5 706h177l219 -442v-264h-159v264zM328 452l126 254h176l-223 -415zM156 884h155l44 -134h-88z" />
    <glyph glyph-name="glyph364" unicode="&#x1ef3;" horiz-adv-x="521" 
d="M-1 542h169l161 -573q-18 -45 -29 -63q-19 -34 -47 -50q-39 -22 -142 -22h-61v123q80 0 92 5q37 15 37 62q0 14 -5 28zM278 247l79 295h165l-179 -528zM119 729h147l42 -128h-84z" />
    <glyph glyph-name="glyph365" unicode="&#x1ef4;" horiz-adv-x="625" 
d="M-5 706h177l219 -442v-264h-159v264zM328 452l126 254h176l-223 -415zM248 -174v128h126v-128h-126z" />
    <glyph glyph-name="glyph366" unicode="&#x1ef5;" horiz-adv-x="521" 
d="M-1 542h169l161 -573q-18 -45 -29 -63q-19 -34 -47 -50q-39 -22 -142 -22h-61v123q80 0 92 5q37 15 37 62q0 14 -5 28zM278 247l79 295h165l-179 -528zM364 -168v122h120v-122h-120z" />
    <glyph glyph-name="glyph367" unicode="&#x1ef6;" horiz-adv-x="625" 
d="M-5 706h177l219 -442v-264h-159v264zM328 452l126 254h176l-223 -415zM358 948l-14 -50q-7 -1 -10 0q-10 0 -27 -12q-18 -18 -18 -32l-58 5q28 90 109 90q9 0 18 -1zM354 896l14 51q65 -8 72 -53q3 -9 3 -19q0 -47 -44 -77q-2 -2 -20 -14q-31 -16 -41 -48l-57 5
q5 14 22 47q15 17 43 33q21 12 33 36q4 8 1 17q-2 19 -26 22z" />
    <glyph glyph-name="glyph368" unicode="&#x1ef7;" horiz-adv-x="521" 
d="M-1 542h169l161 -573q-18 -45 -29 -63q-19 -34 -47 -50q-39 -22 -142 -22h-61v123q80 0 92 5q37 15 37 62q0 14 -5 28zM278 247l79 295h165l-179 -528zM309 791l-13 -47q-7 -1 -10 0q-9 0 -26 -12q-17 -17 -17 -30l-55 5q14 42 35 60q35 30 86 24zM305 742l13 48
q62 -6 69 -50q3 -9 3 -18q0 -45 -42 -73q-2 -2 -19 -13q-28 -9 -39 -46l-54 5q6 15 21 44q9 13 40 32q7 2 17 10q20 20 16 40q-3 18 -25 21z" />
    <glyph glyph-name="glyph369" unicode="&#x1ef8;" horiz-adv-x="625" 
d="M-5 706h177l219 -442v-264h-159v264zM328 452l126 254h176l-223 -415zM404 881h53q-24 -51 -43 -72q-29 -34 -71 -39q-14 0 -42 14q-9 6 -21 11q-20 9 -23 9q-22 0 -39 -33l-57 1l25 46q40 65 98 66q7 0 66 -28q11 -5 15 -5q11 0 23.5 9.5t15.5 20.5z" />
    <glyph glyph-name="glyph370" unicode="&#x1ef9;" horiz-adv-x="521" 
d="M-1 542h169l161 -573q-18 -45 -29 -63q-19 -34 -47 -50q-39 -22 -142 -22h-61v123q80 0 92 5q37 15 37 62q0 14 -5 28zM278 247l79 295h165l-179 -528zM350 719h51q-30 -63 -58 -85q-21 -16 -51 -20q-10 0 -40 13q-9 7 -20 11q-15 8 -21 8q-22 0 -37 -31l-55 1
q28 52 47 72q33 33 70 34q12 0 32 -10q16 -8 31 -16q11 -5 14 -5q28 0 37 28z" />
    <glyph glyph-name="endash" unicode="&#x2013;" horiz-adv-x="562" 
d="M37 258v121h484v-121h-484z" />
    <glyph glyph-name="emdash" unicode="&#x2014;" horiz-adv-x="667" 
d="M667 242h-667v103h667v-103z" />
    <glyph glyph-name="quoteleft" unicode="&#x2018;" horiz-adv-x="250" 
d="M50 396v127q0 36 7 61q22 77 101 114q11 5 50 18l-1 -55q-62 -28 -80 -91q-2 -12 -2 -24h73v-150h-148z" />
    <glyph glyph-name="quoteright" unicode="&#x2019;" horiz-adv-x="250" 
d="M45 389l1 55q27 15 39 26q29 25 38 62q3 12 3 27h-75v147h148v-129q0 -72 -34 -115q-41 -53 -120 -73z" />
    <glyph glyph-name="quotesinglbase" unicode="&#x201a;" horiz-adv-x="250" 
d="M46 -111l15 9q38 23 54 59q5 12 8 27q1 5 1 16h-79v151h153v-132q0 -66 -33 -111q-40 -55 -120 -75z" />
    <glyph glyph-name="quotedblleft" unicode="&#x201c;" horiz-adv-x="458" 
d="M52 398v119q0 38 9 72q27 100 143 126v-55q-59 -29 -74 -83q-5 -18 -5 -28h79v-151h-152zM253 398v123q0 52 12 84q29 79 146 113l-1 -58q-73 -34 -84 -111h79v-151h-152z" />
    <glyph glyph-name="quotedblright" unicode="&#x201d;" horiz-adv-x="458" 
d="M47 388v58q51 21 72 64q11 22 11 46h-78v150h152v-101q0 -65 -9 -95q-14 -45 -56 -77q-26 -20 -49 -29.5t-43 -15.5zM253 389l1 56q71 40 77 111h-78v150h152v-114q0 -91 -41 -139q-23 -27 -63 -47q-16 -8 -48 -17z" />
    <glyph glyph-name="quotedblbase" unicode="&#x201e;" horiz-adv-x="458" 
d="M47 -168v57q13 6 28 17q48 33 56 94h-79v151h152v-117q0 -83 -33 -126q-41 -53 -124 -76zM330 -16v16h-78v151h153v-132q0 -68 -34 -113q-39 -52 -119 -73v56q31 20 36 24q17 13 28.5 32t13.5 39z" />
    <glyph glyph-name="dagger" unicode="&#x2020;" horiz-adv-x="583" 
d="M37 378v126h155v-126h-155zM218 -105v811h148v-811h-148zM391 378v126h155v-126h-155z" />
    <glyph glyph-name="bullet" unicode="&#x2022;" horiz-adv-x="333" 
d="M309 352q0 -60 -39.5 -101t-99.5 -41q-61 0 -103.5 41t-42.5 102q0 30 13 58q39 84 132 84q32 0 60 -13q80 -37 80 -130z" />
    <glyph glyph-name="ellipsis" unicode="&#x2026;" horiz-adv-x="1000" 
d="M901 63q0 -29 -19.5 -49t-47.5 -20q-29 0 -48.5 19.5t-19.5 48.5t19.5 48.5t48.5 19.5q16 0 29 -6q38 -18 38 -61zM568 63q0 -29 -19 -49t-48 -20q-28 0 -48.5 19.5t-20.5 48.5t20 48.5t49 19.5q28 0 47.5 -19t19.5 -48zM235 63q0 -11 -5 -25q-16 -44 -63 -44
q-29 0 -48.5 19.5t-19.5 48.5t20 48.5t49 19.5q28 0 47 -19.5t20 -47.5z" />
    <glyph glyph-name="fraction" unicode="&#x2044;" horiz-adv-x="125" 
d="M-115 0l289 706h65l-288 -706h-66z" />
    <glyph glyph-name="franc" unicode="&#x20a3;" horiz-adv-x="1035" 
d="M54 706h159v-706h-159v706zM240 297v126h290v-126h-290zM240 575v131h334v-131h-334zM709 0v542h157v-542h-157zM1028 551v-142q-15 4 -33 4q-56 0 -83 -21q-8 -5 -19 -18v136q8 10 17 17q32 26 90 26q10 0 28 -2z" />
    <glyph glyph-name="u20AB" unicode="&#x20ab;" horiz-adv-x="393" 
d="M197 501q-48 0 -84 -88q-20 -49 -20 -90q0 -51 39 -51q41 0 74 71q28 60 28 107q0 51 -37 51zM200 267q-53 -62 -106 -62q-45 0 -68 28t-23 74q0 80 55 153q59 78 136 78q34 0 61 -24l20 75h-100l10 36h100l2 16q0 31 -48 32l7 33q67 2 128 14l15 3q6 0 6 -9l-3 -12
l-19 -77h65l-10 -36h-65l-69 -280q-5 -20 -5 -27q0 -15 12 -15q6 0 49 42l20 -18q-70 -86 -117 -86q-43 0 -53 62zM9 160h221v-56h-221v56z" />
    <glyph glyph-name="trademark" unicode="&#x2122;" horiz-adv-x="687" 
d="M655 374h-69l2 192q1 22 5 67q-5 -19 -15 -55l-62 -204h-63l-64 205q-3 8 -15 53q4 -31 5 -67l4 -191h-69v332h92l80 -251l76 251h93v-332zM184 374h-71v274h-105v58h278v-58h-102v-274z" />
    <glyph glyph-name="minus" unicode="&#x2212;" horiz-adv-x="667" 
d="M667 242h-667v103h667v-103z" />
    <glyph glyph-name="SF370000" unicode="&#x255f;" horiz-adv-x="718" 
d="M-6 0l244 706h180l250 -706h-179l-46 150h-198l38 130h121l-51 168q-9 29 -24 103q-7 -33 -23 -99l-133 -452h-179z" />
    <glyph glyph-name="SF420000" unicode="&#x2560;" horiz-adv-x="681" 
d="M55 0v706h160v-706h-160zM242 0v130h336v-130h-336zM242 309v127h304v-127h-304zM242 577v129h330v-129h-330z" />
    <glyph glyph-name="SF190000" unicode="&#x2561;" horiz-adv-x="429" 
d="M55 0v706h159v-706h-159z" />
    <glyph glyph-name="SF200000" unicode="&#x2562;" horiz-adv-x="773" 
d="M370 725v-134q-48 -6 -80 -27q-91 -59 -90 -207q1 -147 87 -207q30 -21 83 -28v-135q-176 3 -270 141q-67 98 -67 229q0 158 89 259q92 105 248 109zM397 591v135q56 -4 92 -14q72 -20 127 -68q118 -103 118 -287q0 -129 -63 -224q-90 -136 -274 -146v135q80 11 120 61
q50 63 50 172q0 115 -54 178q-20 23 -43 36q-31 17 -73 22z" />
    <glyph glyph-name="SF230000" unicode="&#x2563;" horiz-adv-x="811" 
d="M48 706h160v-433q0 -66 14 -97q24 -52 97 -57l-1 -136q-138 0 -209 69q-26 25 -42 67q-19 50 -19 138v449zM345 -16v135q49 6 74.5 27.5t32.5 61.5q4 20 4 71v427h160v-428q0 -14 -1 -53.5t-8 -69.5q-14 -61 -50 -98q-64 -65 -212 -73z" />
    <glyph glyph-name="SF470000" unicode="&#x2564;" horiz-adv-x="699" 
d="M-5 706h177l219 -442v-264h-159v264zM328 452l126 254h176l-223 -415z" />
    <glyph glyph-name="SF480000" unicode="&#x2565;" horiz-adv-x="541" 
d="M346 351v-106q-32 -6 -96 -21q-68 -19 -68 -64q0 -32 29 -47q18 -10 43 -10q51 0 92 29q-3 -25 -3 -53q0 -9 2 -29t1 -31q-14 -11 -23 -15q-47 -23 -110 -23q-123 0 -170 96q-17 35 -17 78q0 37 11 65q29 75 147 101zM525 340v-234q0 -66 20 -106h-164q-12 33 -12 81v276
q0 44 -16 59q-20 20 -65 19q-73 -1 -88 -48q-1 -7 -3 -20h-142q3 60 33 104q58 84 200 84q132 0 191 -64q22 -23 33 -54q13 -35 13 -97z" />
    <glyph glyph-name="SF410000" unicode="&#x2566;" horiz-adv-x="431" 
d="M576 226h-354q-6 36 -6 57q0 24 6 59l192 1q-3 16 -10 34q-14 34 -45 49q-23 11 -50 11q-22 0 -43 -8q-77 -30 -77 -150q0 -108 58 -149q29 -20 67 -20q50 0 80 30q11 11 20 29l156 -11q-30 -81 -92 -125q-67 -48 -168 -48q-77 0 -137 30q-69 34 -106 106q-34 66 -34 148
q0 120 72 201q78 88 207 88q162 0 228 -140q19 -39 27 -87q9 -51 9 -105z" />
    <glyph glyph-name="SF450000" unicode="&#x2567;" horiz-adv-x="314" 
d="M57 0v542h155v-542h-155zM57 570v136h155v-136h-155z" />
    <glyph glyph-name="SF460000" unicode="&#x2568;" horiz-adv-x="314" 
d="M58 0v542h154v-542h-154z" />
    <glyph glyph-name="SF400000" unicode="&#x2569;" horiz-adv-x="498" 
d="M301 559v-124q-45 -8 -71 -34q-41 -42 -41 -129q0 -72 30 -115q13 -18 27 -28q19 -13 55 -20v-126q-49 3 -81 12q-65 19 -110 64q-78 79 -79 212q-1 67 24 125q62 147 246 163zM327 435v124q45 -3 80 -13q65 -19 109 -63q80 -79 79 -207q0 -92 -46 -165
q-47 -76 -131 -107q-44 -16 -91 -19v125q15 3 49 19q60 40 60 149q0 76 -32 116q-19 24 -46 34q-14 5 -31 7z" />
    <glyph glyph-name="SF540000" unicode="&#x256a;" horiz-adv-x="557" 
d="M56 542h156v-312q0 -73 32 -98q24 -19 52 -18q40 1 71 31v-116q-70 -43 -129 -43q-50 0 -91 20q-57 28 -77 92q-14 43 -14 124v320zM393 0v542h155v-542h-155z" />
    <glyph glyph-name="SF530000" unicode="&#x256b;" horiz-adv-x="497" 
d="M-1 542h169l161 -573q-21 -53 -35 -74q-16 -25 -41 -39q-38 -22 -142 -22h-61v123q79 0 92 5q22 9 29.5 28t7.5 34q0 14 -5 28zM278 247l79 295h165l-179 -528z" />
    <glyph glyph-name="circle" unicode="&#x25cb;" horiz-adv-x="718" 
d="M115 833l97 151h142l89 -151h-112l-50 85l-51 -85h-115zM190 1026l45 149h164l-111 -149h-98z" />
    <glyph glyph-name="H18533" unicode="&#x25cf;" horiz-adv-x="718" 
d="M115 833l97 151h142l89 -151h-112l-50 85l-51 -85h-115zM207 1174h172l49 -148h-98z" />
    <glyph glyph-name="invbullet" unicode="&#x25d8;" horiz-adv-x="718" 
d="M115 833l97 151h142l89 -151h-112l-50 85l-51 -85h-115zM614 903q9 29 11 64q1 11 8 13q3 0 8 1q67 11 67 54q0 35 -28 35q-5 0 -14 -1t-14 -1q-21 0 -21 18q0 28 32 28q46 0 76 -25.5t26 -70.5q-6 -59 -87 -81q-25 -7 -31 -34h-33z" />
    <glyph glyph-name="invcircle" unicode="&#x25d9;" horiz-adv-x="718" 
d="M115 833l97 151h142l89 -151h-112l-50 85l-51 -85h-115zM414 1170h67q6 -91 -13 -119.5t-55 -28.5q-18 0 -62 18q-63 26 -71 26q-28 0 -27 -43h-71q-4 75 8 101q17 48 69 48q11 0 23 -3q30 -12 81 -33q9 -6 21 -6q30 0 30 40z" />
    <glyph glyph-name="fi" unicode="&#xf001;" horiz-adv-x="625" 
d="M10 425v117h75q-2 82 28 118q39 46 140 46h92v-117h-60q-45 0 -44 -47h104v-117h-104v-425h-156v425h-75zM411 0v542h155v-542h-155zM411 570v136h155v-136h-155z" />
    <glyph glyph-name="fl" unicode="&#xf002;" horiz-adv-x="625" 
d="M10 425v117h75q-2 82 28 118q39 46 140 46h92v-117h-60q-45 0 -44 -47h104v-117h-104v-425h-156v425h-75zM412 0v706h154v-706h-154z" />
    <glyph glyph-name="periodcentered" horiz-adv-x="187" 
d="M92 213q-32 0 -54 23t-22 55q0 17 7 33q20 46 71 46q32 0 54.5 -23t22.5 -55q0 -33 -23.5 -56t-55.5 -23z" />
    <glyph glyph-name="glyph182" horiz-adv-x="292" 
 />
    <glyph glyph-name="glyph183" horiz-adv-x="278" 
 />
    <glyph glyph-name="glyph275" horiz-adv-x="249" 
 />
    <glyph glyph-name="glyph276" horiz-adv-x="249" 
 />
    <glyph glyph-name="glyph261" horiz-adv-x="500" 
d="M253 522q9 29 11 64q1 11 8 13q3 0 8 1q67 11 67 54q0 35 -28 35q-5 0 -14 -1t-14 -1q-21 0 -21 18q0 28 32 28q46 0 76 -25.5t26 -70.5q-6 -59 -87 -81q-25 -7 -31 -34h-33z" />
    <glyph glyph-name="glyph262" horiz-adv-x="541" 
d="M-88 601l97 151h142l89 -151h-112l-50 85l-51 -85h-115zM-14 795l45 149h164l-111 -149h-98z" />
    <glyph glyph-name="glyph263" horiz-adv-x="541" 
d="M-88 601l97 151h142l89 -151h-112l-50 85l-51 -85h-115zM4 942h172l49 -148h-98z" />
    <glyph glyph-name="glyph264" horiz-adv-x="541" 
d="M-88 601l97 151h142l89 -151h-112l-50 85l-51 -85h-115zM411 671q9 29 11 64q1 11 8 13q3 0 8 1q67 11 67 54q0 35 -28 35q-5 0 -14 -1t-14 -1q-21 0 -21 18q0 28 32 28q46 0 76 -25.5t26 -70.5q-6 -59 -87 -81q-25 -7 -31 -34h-33z" />
    <glyph glyph-name="glyph265" horiz-adv-x="541" 
d="M-88 601l97 151h142l89 -151h-112l-50 85l-51 -85h-115zM211 938h67q6 -91 -13 -119.5t-55 -28.5q-18 0 -62 18q-63 26 -71 26q-28 0 -27 -43h-71q-4 75 8 101q17 48 69 48q11 0 23 -3q30 -12 81 -33q9 -6 21 -6q30 0 30 40z" />
    <glyph glyph-name="glyph266" horiz-adv-x="541" 
d="M93 -1v761h375v-761h-375zM155 62h250v636h-250v-636zM65 795l45 149h164l-111 -149h-98z" />
    <glyph glyph-name="glyph267" horiz-adv-x="541" 
d="M93 -1v761h375v-761h-375zM155 62h250v636h-250v-636zM-49 942h172l49 -148h-98z" />
    <glyph glyph-name="glyph268" horiz-adv-x="541" 
d="M93 -1v761h375v-761h-375zM155 62h250v636h-250v-636zM306 671q9 29 11 64q1 11 8 13q3 0 8 1q67 11 67 54q0 35 -28 35q-5 0 -14 -1t-14 -1q-21 0 -21 18q0 28 32 28q46 0 76 -25.5t26 -70.5q-6 -59 -87 -81q-25 -7 -31 -34h-33z" />
    <glyph glyph-name="glyph269" horiz-adv-x="541" 
d="M93 -1v761h375v-761h-375zM155 62h250v636h-250v-636zM211 938h67q6 -91 -13 -119.5t-55 -28.5q-18 0 -62 18q-63 26 -71 26q-28 0 -27 -43h-71q-4 75 8 101q17 48 69 48q11 0 23 -3q30 -12 81 -33q9 -6 21 -6q30 0 30 40z" />
    <glyph glyph-name="glyph270" horiz-adv-x="249" 
 />
  </font>
</defs>
</svg>
