<?xml version="1.0" standalone="no"?>
<!DOCTYPE svg PUBLIC "-//W3C//DTD SVG 1.1//EN" "http://www.w3.org/Graphics/SVG/1.1/DTD/svg11.dtd" >
<svg xmlns="http://www.w3.org/2000/svg" xmlns:xlink="http://www.w3.org/1999/xlink" version="1.1">
<metadata>
Created by FontForge 20201107 at Sun Apr 30 00:11:28 2017
 By 
</metadata>
<defs>
<font id="SVN-Androgyne" horiz-adv-x="1187" >
  <font-face 
    font-family="SVN-Androgyne"
    font-weight="400"
    font-stretch="normal"
    units-per-em="2048"
    panose-1="2 4 6 3 5 5 6 2 2 4"
    ascent="1638"
    descent="-410"
    x-height="1001"
    cap-height="1428"
    bbox="-284 -463 2253 2196"
    underline-thickness="109"
    underline-position="-250"
    unicode-range="U+0020-20AC"
  />
<missing-glyph horiz-adv-x="505" 
 />
    <glyph glyph-name=".notdef" horiz-adv-x="505" 
 />
    <glyph glyph-name=".null" horiz-adv-x="0" 
 />
    <glyph glyph-name="nonmarkingreturn" horiz-adv-x="682" 
 />
    <glyph glyph-name="space" unicode=" " horiz-adv-x="505" 
 />
    <glyph glyph-name="exclam" unicode="!" horiz-adv-x="625" 
d="M689 1329q0 -39 -7.5 -75.5t-18.5 -71.5q-46 -186 -80.5 -321.5t-57 -228.5t-33.5 -146.5t-11 -74.5q0 -24 6 -46q-16 -2 -31 -3t-29 -1q-75 0 -111 20.5t-42 58.5q0 28 2.5 57t10.5 71q11 50 23.5 109t25.5 121.5t25 126.5t22.5 123.5t17.5 112.5t10 93q6 68 -11 141
q46 17 89 28t81 11q58 0 88.5 -24t30.5 -81zM459 127q0 -14 -6.5 -40t-17.5 -66q-39 -26 -80.5 -39.5t-81.5 -13.5q-51 0 -74.5 24t-23.5 59q0 41 9 68.5t9 49.5v11.5t-1 12.5q37 19 74 29t70 10q60 0 91.5 -27.5t31.5 -77.5z" />
    <glyph glyph-name="quotedbl" unicode="&#x22;" horiz-adv-x="719" 
d="M496 1419q30 0 44 -12.5t14 -31.5v-10t-1 -11q-9 -49 -61 -156q-26 -57 -42.5 -98.5t-31.5 -67.5t-33 -38.5t-46 -12.5q-21 0 -34 2.5t-20 8t-9 14.5t-2 23q0 12 4 36t10 54t13 63.5t13 65.5t10 59.5t4 45.5q0 10 -6 24q81 42 174 42zM833 1419q31 0 45 -12.5t14 -31.5
v-10t-2 -11q-4 -25 -20 -64t-40 -92q-26 -57 -43 -98.5t-32 -67.5t-32.5 -38.5t-45.5 -12.5q-22 0 -35 2.5t-19.5 8t-8.5 14.5t-2 23q0 12 4 36t10 54t12.5 63.5t12.5 65.5t10 59.5t4 45.5q0 9 -5 24q41 21 84.5 31.5t88.5 10.5z" />
    <glyph glyph-name="numbersign" unicode="#" 
d="M1215 1333q-28 -49 -66.5 -126t-88.5 -186h41q44 0 81.5 6.5t76.5 19.5q-8 -57 -27.5 -92t-51.5 -53.5t-77 -25t-104 -6.5q-28 -75 -59 -162.5t-63 -176.5h48q56 0 101 10.5t87 31.5q-13 -65 -37 -103.5t-59.5 -59t-82.5 -26.5t-106 -6q-35 -107 -57.5 -190.5
t-22.5 -126.5q0 -32 8 -61q-32 -10 -59.5 -15.5t-53.5 -5.5q-42 0 -59.5 15t-17.5 48q0 51 27 137.5t67 200.5h-203q-50 -115 -76.5 -215.5t-26.5 -173.5q-26 -5 -50 -8.5t-44 -3.5q-44 0 -62.5 13.5t-18.5 44.5q0 9 2 16t2 21q28 113 110 306h-38q-49 0 -91 -7t-74 -23
q9 35 15.5 62t16.5 47.5t26 34.5t42.5 22.5t66 12.5t98.5 4q35 90 69 178t63 159h-47q-121 0 -197 -28q16 63 35 99t52 54.5t84.5 23t132.5 4.5q19 49 34.5 95t26.5 86.5t16.5 74t5.5 57.5q0 19 -5 41q29 5 56 8t51 3q33 0 52.5 -13.5t19.5 -47.5q0 -25 -9 -60t-23 -75.5
t-31.5 -84.5t-34.5 -86h188q46 121 79 208t50 120q56 32 118 32q24 0 44.5 -9.5t29.5 -38.5zM645 870l-66 -176t-62 -163h195q16 51 48.5 139t78.5 200h-194z" />
    <glyph glyph-name="dollar" unicode="$" horiz-adv-x="1043" 
d="M999 1120q-27 31 -46.5 56t-40.5 44t-47.5 30.5t-68.5 15.5q-20 -110 -42 -225t-42 -236q60 -41 113 -82.5t93 -86.5t63 -95.5t23 -109.5q0 -90 -36.5 -166.5t-100.5 -133.5t-149.5 -91.5t-184.5 -41.5q-3 -25 -5 -45t-2 -39q0 -5 1 -14t6 -20q-21 -17 -39 -23t-33 -6
q-16 0 -39.5 4.5t-34.5 15.5q3 22 7 52.5t12 72.5q-55 3 -114.5 18t-109.5 42.5t-82.5 67t-32.5 92.5q0 25 9.5 52t27.5 53.5t43 50t57 41.5q-1 -26 11.5 -66t40 -80.5t72 -73.5t107.5 -45q21 115 44 239.5t47 255.5q-57 36 -104.5 74t-82 79.5t-53.5 88t-19 100.5
q0 86 31.5 159.5t88 129t135 90.5t173.5 46q2 18 2.5 33.5t2.5 30.5q0 17 -0.5 31.5t-2.5 28.5q16 19 86 19q25 0 37 -20t12 -45q0 -16 -3.5 -33.5t-6.5 -38.5q41 -3 89 -10.5t89.5 -23.5t69 -43t27.5 -69q0 -19 -10 -40t-24.5 -41.5t-31.5 -38t-32 -30.5zM492 1062
q0 -53 28.5 -97t82.5 -79q17 99 35 195t32 187q-39 -5 -71.5 -21.5t-56.5 -43t-37 -62.5t-13 -79zM774 357q0 60 -38 111t-102 100q-20 -110 -39 -218t-36 -208q104 12 159.5 65.5t55.5 149.5z" />
    <glyph glyph-name="percent" unicode="%" horiz-adv-x="1615" 
d="M1372 769q112 0 164 -69t52 -199q0 -99 -32 -192t-90.5 -165t-140 -115t-180.5 -43q-126 0 -183 59.5t-57 174.5q0 102 36 200.5t98.5 176t148 125t184.5 47.5zM1201 120q33 0 61 16.5t50 44t39.5 63.5t28.5 74t17 76t6 70q0 26 -4 55t-14.5 54t-28.5 41t-46 16
q-31 0 -59 -17.5t-52 -46.5t-43.5 -67t-33 -79.5t-20.5 -83.5t-7 -78q0 -28 5.5 -53t18.5 -44t33 -30t49 -11zM501 -28q-79 9 -112.5 26t-33.5 48q4 35 25 76.5t53.5 89.5t74 102.5t88.5 116.5q13 17 45 60t76 101.5t97 128t106.5 140.5t104 138.5t91 121.5t67.5 89.5
t32 43.5q-72 -31 -137 -52.5t-129 -21.5q-20 0 -36.5 2t-33.5 7q2 -11 2 -17.5v-8.5q0 -61 -14.5 -122.5t-41.5 -118t-66 -105.5t-87 -85.5t-104.5 -57t-119.5 -20.5t-108.5 18.5t-74.5 53t-43 83t-14 109.5q0 35 7.5 80.5t22.5 93t36.5 93t49.5 81t62 57t73 21.5
q12 0 25 -1t25.5 -6.5t23.5 -16.5t20 -31q-39 -24 -68.5 -64t-49 -88t-29.5 -100t-10 -101q0 -66 23 -104.5t79 -38.5q49 0 86 37t62.5 92t38.5 119t13 118q0 21 -0.5 41.5t-2.5 39.5q-36 20 -55 40t-19 43q0 70 86 149q48 -58 113 -91.5t158 -33.5q31 0 72 3.5t87 13
t94.5 25t94.5 39.5q33 19 57 27t38 8q26 0 51.5 -14t46.5 -44q-145 -174 -281 -350.5t-269 -359.5q-63 -87 -128 -176.5t-127 -180.5t-116.5 -183t-96.5 -183z" />
    <glyph glyph-name="ampersand" unicode="&#x26;" horiz-adv-x="966" 
d="M1102 301q6 3 14.5 8.5t16 10t11.5 5t1 -7.5q-12 -33 -31.5 -55t-42 -37t-45.5 -24.5t-43 -16.5q-18 -6 -50.5 -3.5t-68.5 11t-71.5 23t-60.5 33.5q-77 -91 -168 -164t-199 -112q-81 -27 -135 -27q-66 0 -100.5 38.5t-34.5 116.5q0 111 72.5 223.5t203.5 221.5
q-29 26 -46 63.5t-17 86.5q0 64 25.5 123t69.5 108.5t102.5 87.5t124.5 61q20 7 36.5 9.5t30.5 2.5q18 0 31 -3.5t24 -10.5q38 -21 41 -65q7 -40 -11 -90.5t-52 -103.5t-80 -106t-97 -98q48 -51 102 -97.5t115 -86.5q19 34 37 72.5t31.5 77.5t21.5 76t8 69q-2 29 -10.5 42
t-17.5 18t-16.5 5t-7.5 3q0 7 12.5 17.5t29.5 20.5t34.5 17.5t27.5 10.5q25 9 41 8.5t25.5 -8.5t13.5 -21.5t4 -29.5q0 -21 -4 -45t-8 -44q-6 -40 -21 -84t-36 -87.5t-46.5 -84.5t-51.5 -77q10 -5 27 -15.5t39 -23t47.5 -24t51.5 -18.5t51.5 -8t48.5 8zM599 976
q-27 -9 -49.5 -27.5t-38.5 -44t-25 -57.5t-9 -68q0 -71 37 -112q41 39 72.5 79t53 76.5t32.5 68t10 55.5q-2 29 -26.5 35.5t-56.5 -5.5zM436 112q73 24 127 71t98 104q-58 37 -121 87t-122 122q-60 -66 -91.5 -138t-31.5 -138q0 -56 20 -87t65 -31q26 0 56 10z" />
    <glyph glyph-name="quotesingle" unicode="'" horiz-adv-x="415" 
d="M505 1423q32 0 47.5 -13.5t17.5 -34.5v-10t-2 -12q-5 -26 -20.5 -67.5t-40.5 -98.5q-27 -61 -43.5 -104.5t-31.5 -71.5t-32.5 -41t-47.5 -13q-23 0 -36.5 2t-21 8t-10 16t-2.5 25q-1 13 2.5 39t9 57.5t12 67.5t12.5 69.5t9 62t3 47.5q0 7 -2.5 13t-5.5 13q86 46 183 46z
" />
    <glyph glyph-name="parenleft" unicode="(" horiz-adv-x="739" 
d="M892 1386q-104 -51 -188 -140.5t-150 -213.5q-70 -135 -109 -281.5t-45 -295.5q0 -217 54 -347.5t165 -168.5q-77 -99 -162 -99q-74 0 -129.5 47.5t-93 125t-56 176.5t-18.5 203q0 97 16 197t47.5 196.5t77 188.5t105.5 174q54 70 107.5 123.5t104 90t95.5 55t82 18.5
q26 0 52.5 -12t44.5 -37z" />
    <glyph glyph-name="parenright" unicode=")" horiz-adv-x="707" 
d="M717 886q0 -98 -16 -197t-47 -196t-76.5 -189t-104.5 -174q-109 -139 -211.5 -213t-178.5 -74q-26 0 -52 12.5t-44 37.5q109 60 199.5 163t156.5 241q66 136 101 281.5t35 289.5q0 202 -57 321t-164 151q77 99 162 99q77 0 133 -49.5t92.5 -129t54 -178t17.5 -196.5z" />
    <glyph glyph-name="asterisk" unicode="*" horiz-adv-x="918" 
d="M643 1030q29 -1 50 -16.5t21 -46.5q0 -27 -7.5 -47.5t-24.5 -38.5q-5 -9 -17 -16q-29 7 -72 19.5t-92 22.5q29 -46 45.5 -81t23.5 -63q8 -28 -1 -51.5t-38 -32.5q-26 -9 -48 -9t-45 10q-7 3 -20 11q-1 29 -2.5 74.5t-6.5 93.5q-35 -42 -63 -67t-53 -41t-50 -14.5
t-42 24.5t-23 43t-4 46q0 5 0.5 9.5t2.5 12.5q28 11 71 27t88 35q-51 20 -84.5 39t-56.5 37q-22 20 -29 43.5t11 48.5q29 42 76 52q10 3 23 3q19 -22 46.5 -58t60.5 -72q3 54 10.5 91.5t17.5 64.5q11 28 32.5 42t50.5 4q50 -15 72 -55q4 -5 6 -10t5 -12q-16 -25 -41.5 -62
t-48.5 -80q51 14 89 18t67 2z" />
    <glyph glyph-name="plus" unicode="+" horiz-adv-x="997" 
d="M981 621q-8 -33 -16 -62t-19 -54q-10 -30 -39.5 -47t-72 -26t-96 -11.5t-110.5 -2.5q-19 -94 -31.5 -163t-12.5 -116q0 -17 1.5 -31t3.5 -27q-25 -5 -47.5 -9t-45.5 -4q-51 0 -81 11.5t-30 41.5q0 31 5.5 67t14.5 74t20 77.5t23 78.5h-79q-67 0 -125 -7t-105 -22
q7 35 14.5 64.5t17.5 54.5q12 30 42.5 47.5t72.5 26.5t93.5 11.5t107.5 2.5q19 80 32.5 153.5t13.5 127.5q0 13 -1 25t-3 23q24 5 46 9t42 4q64 0 86.5 -13t22.5 -46q0 -26 -6 -60.5t-15 -72t-19.5 -76t-18.5 -74.5h50q79 0 146 5.5t118 19.5z" />
    <glyph glyph-name="comma" unicode="," horiz-adv-x="547" 
d="M457 139q0 -65 -33 -128.5t-102 -126.5q-27 -25 -61.5 -51t-72 -47t-76 -34.5t-73.5 -13.5q-8 0 -20 3.5t-23.5 11.5t-20 19.5t-8.5 28.5q0 7 2.5 12.5t4.5 12.5q119 21 172 76t53 146q0 35 -15 67.5t-31 58.5q15 14 38 26.5t50 22t54 15t50 5.5t43.5 -4.5t35.5 -16
t24 -32t9 -51.5z" />
    <glyph glyph-name="hyphen" unicode="-" horiz-adv-x="642" 
d="M670 677q7 -11 8 -21.5t-1 -23.5q-17 -62 -39.5 -96t-54 -50t-74 -19.5t-98.5 -3.5h-54q-41 0 -75 -4t-60.5 -9.5t-45 -9.5t-28.5 -4q0 23 10 47q24 57 43.5 91.5t40 52.5t45 23.5t58.5 5.5q17 2 36 1t45 -1h61q52 0 100 5t83 16z" />
    <glyph glyph-name="period" unicode="." horiz-adv-x="524" 
d="M422 144q0 -28 -9 -62t-24 -73q-36 -19 -74.5 -30t-73.5 -11q-47 0 -72.5 19.5t-29.5 54.5v28q7 38 13 68t6 48v11t-1 11q75 40 144 40q58 0 89.5 -27t31.5 -77z" />
    <glyph glyph-name="slash" unicode="/" horiz-adv-x="823" 
d="M1076 1428q-39 -37 -95.5 -113.5t-125 -182t-145 -236t-156.5 -275.5q-149 -281 -231.5 -473.5t-99.5 -287.5q-26 0 -58.5 -2t-62.5 -2q-24 0 -44 3t-32.5 11t-16.5 23.5t5 39.5q7 25 35.5 85.5t74.5 150t107 205.5t134 251q67 127 128 237t113.5 199t95.5 156t74 109
q25 27 47 47.5t46 34t53 20.5t68 7q17 0 39 -2t47 -5z" />
    <glyph glyph-name="zero" unicode="0" horiz-adv-x="1120" 
d="M1178 1012q-2 -121 -24.5 -246t-64.5 -242.5t-103 -220.5t-139.5 -180.5t-175 -122t-208.5 -44.5q-96 0 -162.5 30t-108 85t-60 130.5t-18.5 167.5q0 122 22.5 249.5t65 247.5t105 226t142 185.5t175.5 125.5t206 46q100 0 167 -31.5t107 -89t57 -138t17 -178.5z
M905 1020q0 59 -7.5 109.5t-26 87.5t-48.5 58t-75 21q-51 0 -96.5 -35t-85 -98t-72 -149t-56 -187.5t-37 -215.5t-16.5 -231q0 -58 7 -109t24 -88.5t46 -59t73 -21.5q56 0 105 40.5t89.5 109.5t72 160.5t54 193.5t35 208.5t14.5 205.5z" />
    <glyph glyph-name="one" unicode="1" horiz-adv-x="938" 
d="M841 79q0 -18 -9.5 -44.5t-35.5 -69.5q-41 21 -86 25.5t-91 4.5h-188q-32 0 -77.5 -1t-89.5 -3q-24 -1 -49 3.5t-45.5 15t-34.5 27t-17 40.5q0 38 10 64t27 52q13 -2 29.5 -5t34.5 -6t35.5 -5t32.5 -2q21 0 41 1t37 3q7 17 12.5 33.5t9.5 34.5q30 120 60.5 247t60 253.5
t57.5 249t52 232.5q-29 -5 -60.5 -11t-63 -13.5t-61 -15.5t-54.5 -16q-35 -12 -54.5 7.5t-19.5 65.5q0 45 7 77.5t21 66.5q44 0 108.5 2.5t136 9t142 19t127.5 33.5q51 -59 51 -112q0 -24 -7 -51q-64 -281 -133 -563t-129 -559q20 0 37 1.5t32 3.5q31 1 57 -5t45.5 -18.5
t30.5 -31t11 -40.5z" />
    <glyph glyph-name="two" unicode="2" horiz-adv-x="1120" 
d="M81 125q70 57 139.5 116.5t137 122t130.5 129t120 139.5q112 142 176 263t66 218q0 33 -13.5 61t-36 48.5t-52 32t-60.5 11.5q-75 0 -146 -37t-120 -109q-14 -14 -28.5 -27t-34.5 -18q-19 32 -30.5 62t-11.5 63q0 56 39 101.5t103.5 78t147 50t169.5 17.5q82 0 147 -18
t111 -54t70.5 -91t24.5 -130q0 -87 -37 -175t-102 -183q-88 -127 -220 -267q-11 -12 -38 -39l-62 -62t-74 -73t-73.5 -72t-60.5 -59.5t-35 -35.5q52 -2 95 -3t81 -1t71 1t63 3q52 3 93 12.5t72 19.5t51.5 17.5t32.5 7.5q10 0 12.5 -16.5t2.5 -36.5q0 -61 -7.5 -103
t-27.5 -68t-54.5 -37.5t-88.5 -11.5q-60 0 -155 5t-204 5q-45 0 -89.5 -2t-84.5 -4t-75 -4t-62 -2q-17 0 -32.5 1t-20.5 6q-6 7 -11 20.5t-8.5 29t-5 31.5t-1.5 28q0 26 7 39z" />
    <glyph glyph-name="three" unicode="3" horiz-adv-x="1069" 
d="M324 607q-10 20 -14 38t-4 34q0 33 17.5 55.5t45.5 38t63 26.5t71 21q60 20 121.5 46.5t112 62.5t82 83t31.5 108q0 80 -44.5 119.5t-117.5 39.5q-42 0 -81.5 -11.5t-74 -32.5t-62.5 -51.5t-46 -68.5q-11 14 -24 30t-24 32.5t-18.5 32.5t-7.5 30q0 51 30.5 90t82.5 65
t122 39t148 13q88 0 158 -16t118 -50t73.5 -85.5t25.5 -122.5q0 -70 -25 -130t-71 -111q-48 -51 -114 -90t-147 -81q-5 -2 -5 -3q0 -4 5 -4q62 2 110 -21.5t83 -59.5q71 -77 71 -200q0 -78 -24.5 -146.5t-67 -126t-101.5 -102.5t-128 -76t-145.5 -47.5t-154.5 -16.5
q-161 0 -237 33.5t-76 102.5q0 36 14.5 83.5t39.5 87.5q23 -34 53.5 -60.5t66 -45t74.5 -28.5t80 -10q73 0 133.5 24t104 65.5t68 97t24.5 118.5q0 39 -12 76t-35.5 66.5t-57.5 47.5t-78 18q-118 0 -232 -27z" />
    <glyph glyph-name="four" unicode="4" horiz-adv-x="1138" 
d="M1064 591q35 0 48.5 -14t13.5 -37q0 -13 -7.5 -34t-19.5 -44.5t-27.5 -46.5t-30.5 -39q-40 11 -82.5 17.5t-88.5 7.5q-12 -58 -21 -103.5t-15.5 -81t-10 -63t-3.5 -48.5q0 -28 6.5 -50t14.5 -41q-39 -17 -84 -30.5t-87 -13.5q-56 0 -81 22t-25 71q0 26 6.5 67.5t16 89
t20 96.5t19.5 90q-76 0 -151.5 -4t-141.5 -9t-116 -9t-75 -4q-12 0 -23.5 4.5t-19.5 16.5t-13 33.5t-5 55.5q0 21 7 39q21 51 61.5 114.5t94.5 133.5t118.5 144t133.5 145q53 55 108.5 109.5t114 105.5t119.5 97t126 84q30 0 53.5 -6.5t40 -16t25 -21.5t8.5 -23
q0 -15 -2.5 -36.5t-6.5 -46t-9 -50t-9 -49.5q-14 -61 -32.5 -137t-39.5 -158.5t-42.5 -167.5t-40.5 -164q40 0 65 1t41 1.5t27 1.5t22 1zM667 582q17 70 37 143t40.5 144t39.5 139.5t34 129.5q-34 -29 -72.5 -64.5t-79.5 -74.5t-82.5 -80t-80.5 -80q-65 -66 -122 -133
t-105 -136q37 1 82 2.5t95.5 3t105 3t108.5 3.5z" />
    <glyph glyph-name="five" unicode="5" horiz-adv-x="1108" 
d="M510 693q-11 0 -28 -0.5t-28 -4.5q-17 -3 -46 -6t-58 -3q-18 0 -34.5 2t-28 6.5t-17 12t-1.5 19.5q2 10 12 43t24.5 81t32.5 107t37 120t37.5 120.5t33.5 109t26 85t15 47.5q80 -10 161.5 -15t155.5 -5q24 0 63 2.5t83 8t88 13t77 18.5q16 6 27 8.5t19.5 3t15 -0.5
t14.5 -2q-21 -81 -57.5 -131t-87.5 -77t-114.5 -36.5t-138.5 -9.5q-49 0 -96 2t-87 8q-30 -89 -59 -175.5t-55 -175.5q32 7 74 10t84 3q84 0 154.5 -21.5t121.5 -65.5t80 -111t29 -157q0 -125 -51.5 -229.5t-141.5 -179.5t-211.5 -117t-261.5 -42q-60 0 -113.5 7t-93 23.5
t-62.5 43.5t-23 68q0 29 11.5 68.5t30.5 74.5q22 -19 48.5 -41.5t61 -41.5t79.5 -31.5t105 -12.5q77 0 141 22.5t109.5 66t70.5 108t25 148.5q0 50 -20 94.5t-55 76.5q-35 34 -81 47.5t-97 13.5z" />
    <glyph glyph-name="six" unicode="6" horiz-adv-x="1120" 
d="M1131 1319q0 -29 -2.5 -62t-11.5 -65q-11 10 -27.5 22.5t-39 23t-50.5 18t-62 7.5q-59 0 -114.5 -23t-104.5 -62.5t-92.5 -93t-79.5 -115t-64 -128.5t-47 -132q82 70 153.5 100t147.5 30q73 0 131 -19t99 -58t63 -97.5t22 -137.5q0 -122 -43.5 -226t-118.5 -180.5
t-174.5 -119.5t-210.5 -43q-100 0 -172 28t-118.5 80.5t-69 128t-22.5 170.5q0 113 27.5 237.5t78.5 244.5t123.5 229t163.5 191.5t198 131t226 48.5q40 0 74 -6.5t59 -21.5t40 -39.5t18 -60.5zM802 440q0 107 -50 161.5t-144 54.5q-48 0 -98.5 -21t-100.5 -58
q-27 -117 -27 -214q0 -53 8 -98.5t29 -80t56 -54t89 -19.5q59 0 103.5 25t74.5 69.5t45 104.5t15 130z" />
    <glyph glyph-name="seven" unicode="7" horiz-adv-x="892" 
d="M1154 1445q6 -27 3.5 -57t-10 -58.5t-20 -52.5t-25.5 -40q-100 -117 -198 -240t-200 -269q-73 -104 -133.5 -204.5t-104 -191t-68 -167.5t-24.5 -134v-26t2 -23q-25 -11 -59.5 -17.5t-69.5 -6.5q-74 0 -115.5 25.5t-41.5 81.5q0 48 32 124.5t85.5 168.5t122 191.5
t142.5 192.5q91 117 187.5 237t193.5 232q-46 -3 -100.5 -5t-110 -3.5t-108.5 -3t-96.5 -2t-73 -1t-38.5 -0.5q-45 0 -68.5 12.5t-23.5 35.5q1 33 6.5 59.5t14.5 49t22.5 42.5t30.5 40q37 0 93 -2t125 -5t149.5 -5t166.5 -2q91 0 171 5t141 19z" />
    <glyph glyph-name="eight" unicode="8" horiz-adv-x="1120" 
d="M1161 1194q0 -134 -86.5 -238.5t-244.5 -192.5q106 -78 160.5 -161.5t54.5 -177.5q0 -74 -21.5 -137.5t-60 -115t-91 -91.5t-114.5 -66.5t-131.5 -40.5t-141.5 -14q-192 0 -292.5 82.5t-100.5 234.5q0 72 29.5 137t82 123.5t124.5 110.5t157 97q-33 28 -60.5 60.5
t-47.5 69t-31.5 75.5t-11.5 80q0 91 38.5 168.5t104.5 133t154.5 87t188.5 31.5q165 0 253 -65t88 -190zM913 1159q0 72 -39 110t-105 38q-94 0 -144 -56t-50 -150q0 -69 39.5 -132.5t102.5 -118.5q42 30 77.5 65t62 74t41.5 82t15 88zM800 346q0 40 -15.5 79t-43.5 78
t-66.5 77.5t-83.5 77.5q-51 -36 -93.5 -76.5t-73.5 -86t-48 -96t-17 -107.5q0 -91 44 -140.5t135 -49.5q54 0 101.5 19.5t83.5 53t56.5 77.5t20.5 94z" />
    <glyph glyph-name="nine" unicode="9" horiz-adv-x="1120" 
d="M1156 1017q-2 -116 -32 -239.5t-83.5 -241t-128.5 -222.5t-167.5 -184t-201 -125t-228.5 -46q-91 0 -140.5 35t-49.5 117q0 35 11 63.5t21 45.5q12 -10 26.5 -23.5t35 -25.5t48 -20.5t65.5 -8.5q60 0 115.5 23.5t106.5 63.5t95.5 94.5t81.5 116.5t65.5 128.5t47.5 131.5
q-80 -74 -159.5 -104t-148.5 -30q-147 0 -228 80.5t-81 232.5q0 77 19.5 149t55.5 134.5t86 114.5t111 89t131 57.5t146 20.5q102 0 174 -26.5t118 -80t67 -133.5t21 -187zM895 1041q0 55 -10 101.5t-32 80.5t-58.5 53.5t-88.5 19.5q-59 0 -102.5 -25.5t-72 -70.5
t-42.5 -105.5t-14 -130.5q0 -100 47 -155t136 -55q43 0 100 22t110 54q13 51 19.5 106.5t7.5 104.5z" />
    <glyph glyph-name="colon" unicode=":" horiz-adv-x="524" 
d="M433 144q0 -28 -9 -62t-24 -73q-36 -19 -74 -30t-73 -11q-48 0 -73.5 19.5t-30.5 54.5v28q7 38 13.5 68t6.5 48v11t-2 11q38 20 73.5 30t70.5 10q59 0 90.5 -27t31.5 -77zM570 874q0 -28 -9.5 -62t-24.5 -73q-35 -19 -73.5 -30t-73.5 -11q-48 0 -73.5 19.5t-30.5 54.5v28
q8 38 14.5 68t6.5 48v11t-2 11q38 20 73.5 30t70.5 10q59 0 90.5 -27t31.5 -77z" />
    <glyph glyph-name="semicolon" unicode=";" horiz-adv-x="547" 
d="M570 874q0 -28 -9.5 -62t-24.5 -73q-35 -19 -73.5 -30t-73.5 -11q-48 0 -73.5 19.5t-30.5 54.5v28q8 38 14.5 68t6.5 48v11t-2 11q38 20 73.5 30t70.5 10q59 0 90.5 -27t31.5 -77zM457 139q0 -65 -33 -128.5t-102 -126.5q-27 -25 -61.5 -51t-72 -47t-76 -34.5
t-73.5 -13.5q-8 0 -20 3.5t-23.5 11.5t-20 19.5t-8.5 28.5q0 7 2.5 12.5t4.5 12.5q119 21 172 76t53 146q0 35 -15 67.5t-31 58.5q15 14 38 26.5t50 22t54 15t50 5.5t43.5 -4.5t35.5 -16t24 -32t9 -51.5z" />
    <glyph glyph-name="less" unicode="&#x3c;" horiz-adv-x="776" 
d="M363 619q61 -46 113 -96.5t88 -104.5t52.5 -111.5t8.5 -116.5q-3 -17 -9.5 -32t-17.5 -26q-32 33 -80.5 77.5t-104 91t-114 91.5t-109.5 80q-25 16 -47.5 30.5t-39 34t-26.5 48.5t-10 75q29 24 65 40q70 28 148.5 70.5t157 93.5t154 108t140.5 115q15 14 32 27.5t32 24.5
q7 -5 12.5 -13.5t8.5 -17.5t4 -17.5t1 -12.5q-11 -57 -49.5 -116.5t-99 -118t-139.5 -115t-171 -109.5z" />
    <glyph glyph-name="equal" unicode="=" horiz-adv-x="1073" 
d="M966 443q-8 -44 -15.5 -75t-17 -52t-23.5 -33.5t-33 -18.5q-55 -12 -126.5 -18.5t-159.5 -6.5h-69q-18 0 -36.5 1t-35.5 1q-182 0 -297 -21q14 76 35 116.5t51 58.5t71 20.5t94 2.5h282q79 0 149 6.5t131 18.5zM1025 781q-7 -44 -14.5 -75t-17.5 -52t-23 -33t-32 -18
q-54 -11 -124 -17.5t-156 -6.5h-69q-17 0 -34 0.5t-35 0.5q-179 0 -291 -21q13 76 34 116.5t50.5 59t69 21t90.5 2.5h278q77 0 145.5 6t128.5 17z" />
    <glyph glyph-name="greater" unicode="&#x3e;" horiz-adv-x="776" 
d="M529 652q-62 46 -113.5 97t-87.5 105t-52.5 111t-8.5 117q3 17 10 32t18 25q31 -33 79.5 -77t104 -90.5t114 -92t109.5 -79.5q25 -17 47.5 -31t39.5 -34t27 -49t10 -74q-14 -11 -30.5 -22t-35.5 -19q-71 -28 -149 -70.5t-156.5 -93.5t-154 -108t-140.5 -115
q-15 -14 -32 -27t-33 -25q-14 11 -20.5 32t-4.5 29q11 57 49.5 116.5t99 118t139.5 115t171 109.5z" />
    <glyph glyph-name="question" unicode="?" horiz-adv-x="934" 
d="M706 1449q79 0 145 -17.5t112.5 -54.5t72.5 -95t26 -139q0 -79 -31.5 -146t-86.5 -125q-37 -35 -80.5 -68t-87 -65t-83.5 -63t-71.5 -62t-50 -63t-18.5 -64q0 -20 8 -50.5t19 -53.5q-48 -32 -89 -45.5t-76 -13.5q-27 0 -47.5 14t-35 34t-21.5 42.5t-7 39.5q0 47 20 90
t56 75q22 19 61.5 47t85.5 63.5t94 78t87 91.5t63.5 104.5t24.5 116.5q0 42 -12.5 72.5t-35 50.5t-53 29.5t-67.5 9.5q-35 0 -66 -11t-57 -31t-46 -47t-32 -59q-8 -11 -18 -21t-27 -14q-36 26 -58.5 56t-22.5 65q0 55 37.5 97.5t96 71.5t130.5 44.5t141 15.5zM417 221
q57 0 87.5 -26.5t30.5 -74.5q0 -13 -6 -38t-17 -64q-37 -24 -77 -37t-80 -13q-47 0 -69 22.5t-22 57.5q0 39 8 65t8 47v11t-2 13q36 17 71.5 27t67.5 10z" />
    <glyph glyph-name="at" unicode="@" horiz-adv-x="1651" 
d="M1152 -16q7 -22 7 -49q0 -14 -2.5 -27.5t-8.5 -25.5q-14 -28 -59 -51.5t-108 -41t-138 -27.5t-150 -10q-131 0 -236 32t-178.5 95.5t-112.5 160t-39 225.5q0 133 38.5 256.5t107 230.5t162.5 194.5t205 150t235 97t253 34.5q128 0 234 -30t182.5 -90.5t119 -153.5
t42.5 -219q0 -105 -36 -209t-101 -187t-154.5 -134.5t-197.5 -51.5q-44 0 -83.5 16.5t-69.5 45t-48 67.5t-19 83q-82 -115 -167.5 -175t-178.5 -60q-44 0 -74 14t-48 39t-25.5 58t-7.5 72q0 58 18 120.5t50 122t75.5 113.5t94.5 94.5t108 64t115 23.5q37 0 77.5 -11.5
t82.5 -39.5q18 21 46 31t63 10q18 0 41 -5.5t43 -13.5q-25 -44 -48.5 -104t-42 -121.5t-30 -118t-11.5 -93.5q0 -43 17.5 -71.5t58.5 -28.5q62 0 110 36.5t80.5 96.5t49.5 135.5t17 153.5q0 96 -30.5 167t-87.5 118t-138.5 70t-183.5 23q-101 0 -196 -29.5t-178.5 -82.5
t-152.5 -126.5t-118 -162t-76.5 -188.5t-27.5 -206q0 -100 29.5 -174.5t85 -124.5t135 -75t179.5 -25q105 0 209 23.5t192 69.5zM1064 693q-19 28 -47.5 41.5t-50.5 13.5q-38 0 -73 -20t-65.5 -53t-56 -76t-44 -88.5t-28.5 -91t-10 -82.5q0 -34 11.5 -53t43.5 -19
q37 0 81.5 40.5t89 103t84 138t65.5 146.5z" />
    <glyph glyph-name="A" unicode="A" 
d="M229 5q-42 -14 -84.5 -22.5t-87.5 -8.5q-94 0 -94 65q0 20 7 43t23 53q50 92 108 193t120.5 208t128 217t131.5 220q54 92 115.5 193.5t124.5 215.5q50 38 108.5 54t121.5 9q77 -9 83 -131v-70t2 -83q0 -47 2.5 -87t2.5 -75q1 -16 3.5 -53t5 -84.5t5.5 -99.5t5.5 -99
t4 -83t2.5 -51q6 -88 15.5 -166t23.5 -142q14 -65 34 -111t52 -75q-50 -35 -107.5 -50.5t-120.5 -10.5q-49 4 -80 46t-43 135q-14 76 -18.5 150.5t-11.5 151.5q-21 -17 -42.5 -21.5t-42.5 -4.5q-76 -3 -150 -4t-149 -1q-37 -20 -54.5 -39.5t-31.5 -45.5q-20 -28 -40.5 -70.5
t-36.5 -77.5q-19 -44 -32.5 -92t-2.5 -96zM760 582q14 0 24 2t21 4q0 38 -1.5 87t-3 103t-4 110.5t-5.5 109.5t-6 100.5t-6 83.5q-32 -59 -69 -127.5t-78 -144.5t-85 -158.5t-90 -169.5h303z" />
    <glyph glyph-name="B" unicode="B" horiz-adv-x="1194" 
d="M1219 1150q-8 -130 -93.5 -225t-235.5 -156q72 -15 126.5 -44t91.5 -69t55.5 -90t18.5 -107v-9q-3 -102 -50.5 -185t-132.5 -149q-93 -75 -212 -110.5t-256 -35.5q-30 0 -71 2.5t-83 7t-80.5 10t-64.5 10.5q-17 4 -34 17.5t-30.5 32.5t-22 41.5t-8.5 45.5q0 15 0.5 31.5
t4.5 33.5q22 93 46.5 195t48.5 203t46 195.5t39 172.5t27 134t10 80q0 10 -1 20.5t-2.5 19t-4 13t-6.5 3.5q-19 -4 -35 -4.5t-25 -0.5q-8 3 -5 31q0 13 2.5 26.5t9.5 25.5q12 25 22.5 39t22 22t25.5 12.5t34 10.5q89 24 179.5 36.5t182.5 12.5h40t41 -2q92 -5 163 -23.5
t119 -53.5t73 -89.5t25 -130.5zM905 431q0 100 -61 154t-179 71q-14 3 -27.5 3.5t-27.5 -1.5t-28 -2h-29q-10 0 -21 4.5t-20 18.5q-12 -48 -25 -103.5t-26 -112t-24.5 -111t-18.5 -101.5q-2 -20 -2.5 -37t-0.5 -33q33 -29 78 -43.5t100 -16.5q77 0 132.5 22t97.5 67
q80 88 82 212v9zM958 1124q0 50 -17 83.5t-47 54t-70.5 29.5t-88.5 9q-8 0 -24 -1.5t-35.5 -4t-39.5 -6t-35 -6.5q10 -19 14 -38t4 -43q0 -16 -2 -35.5t-7 -45.5q-8 -39 -17 -80.5t-18.5 -82.5t-18.5 -80.5t-18 -74.5q15 1 34.5 2.5t40 3t39.5 3.5t34 5q65 12 115 39
t84.5 66t52.5 87.5t20 102.5v13z" />
    <glyph glyph-name="C" unicode="C" horiz-adv-x="1119" 
d="M1279 1264q0 -63 -47 -109.5t-126 -81.5q-26 113 -80 170t-156 57q-74 0 -135.5 -38t-111 -102t-86.5 -147.5t-61.5 -174t-37 -181.5t-12.5 -170q0 -80 15.5 -144t48 -108t82 -67.5t117.5 -23.5q47 0 98 14t103 39.5t102 61t95 78.5q11 -30 18.5 -54.5t7.5 -44.5
q0 -34 -22.5 -68t-61.5 -65t-92 -57.5t-113.5 -46.5t-126.5 -31t-131 -11q-116 0 -198.5 33.5t-135 98.5t-77.5 159t-25 216q0 124 29.5 245.5t83.5 231t130 202.5t169 161t200 106.5t224 38.5q66 0 123 -11t99 -33.5t66.5 -58t24.5 -84.5z" />
    <glyph glyph-name="D" unicode="D" horiz-adv-x="1284" 
d="M781 1447q128 0 230.5 -29t174.5 -89.5t110.5 -155t38.5 -225.5t-32.5 -254t-90 -231.5t-137 -199t-174 -155t-201 -100.5t-217.5 -36q-97 0 -189.5 31t-170.5 91q-2 13 1 28.5t8 41.5q28 126 59.5 257t61 254.5t54.5 234t41 196.5q6 27 6 44q0 21 -8.5 30t-19 15
t-19 12.5t-8.5 21.5q0 36 10.5 72t31.5 67q44 16 96 30.5t109 25.5t116.5 17t118.5 6zM589 140q67 0 127.5 30.5t112.5 83.5t94.5 125.5t72 156.5t46 176t16.5 185q0 91 -20 162.5t-59.5 121t-98 75.5t-134.5 26q-11 0 -28 -1.5t-36.5 -3.5t-40 -5.5t-38.5 -7.5
q13 -39 13 -84q0 -35 -10.5 -98t-27.5 -143.5t-38 -173t-43 -185.5t-42 -181t-35 -160q12 -54 50.5 -76.5t118.5 -22.5z" />
    <glyph glyph-name="E" unicode="E" horiz-adv-x="994" 
d="M383 1397q117 11 233.5 16.5t234.5 5.5q56 0 106 3.5t88 3.5q28 0 48 -1.5t34.5 -5.5t25.5 -10t20 -16q-5 -33 -17 -67t-30.5 -62t-43.5 -45.5t-55 -17.5q-9 0 -20.5 7t-29.5 16t-43.5 16t-61.5 7h-68q-39 0 -74.5 2.5t-64.5 2.5h-81q13 -14 18 -28t5 -28
q0 -7 -0.5 -14.5t-3.5 -15.5q-17 -78 -36.5 -167t-42.5 -186h108q90 0 174 8.5t152 19.5q0 -11 -1 -21.5t-4 -23.5q-15 -55 -42.5 -86.5t-66 -47t-86.5 -19t-104 -3.5h-110h-55q-10 -30 -21.5 -72.5t-21.5 -88.5t-17 -92t-7 -83q0 -56 21 -84.5t52 -40t66.5 -12t64.5 -0.5
q70 0 131.5 12.5t110.5 27.5t84 27.5t52 12.5q0 -87 -33 -138.5t-93.5 -78.5t-145 -35t-187.5 -8q-65 0 -128.5 1t-126.5 1q-51 0 -82.5 12t-48 33.5t-22 52t-5.5 68.5q0 27 3.5 58.5t9.5 64.5t13.5 66t15.5 64q34 131 64.5 246t53 212t36 175.5t13.5 136.5v20.5t-0.5 19
t-2.5 13.5t-6 4q-18 -5 -34.5 -5.5t-24.5 -0.5q-9 3 -6 32q0 26 11 51q12 25 22.5 40.5t22 24.5t25.5 13.5t35 6.5z" />
    <glyph glyph-name="F" unicode="F" horiz-adv-x="907" 
d="M623 772q53 0 110 2t109 6t94.5 10t66.5 14q0 -50 -13 -85.5t-33 -58.5t-44 -34.5t-45 -13.5q-58 -4 -129.5 -9t-156.5 -5q-20 0 -39.5 -0.5t-39.5 -4.5q-7 -19 -11.5 -39.5t-10.5 -41.5q-36 -158 -54 -253.5t-18 -149.5q0 -28 9 -52.5t9 -40.5q-32 -22 -82 -33t-98 -11
q-68 0 -94 24.5t-26 75.5q0 32 6.5 64.5t14.5 67.5q12 56 23.5 110t25.5 110q35 131 65.5 246t53.5 212t36 175.5t13 136.5v21t-0.5 19.5t-3 13.5t-6.5 4q-17 -5 -33.5 -5.5t-24.5 -0.5q-8 2 -5 31q0 28 10 52q13 25 23 40.5t21 24.5t25.5 13.5t36.5 6.5q231 21 468 21
q55 0 104.5 4.5t88.5 4.5q55 0 82.5 -7.5t44.5 -26.5q-5 -33 -17 -67t-30.5 -61.5t-43.5 -45t-55 -17.5q-8 0 -19 7t-29 15.5t-44 15.5t-63 7h-67q-39 0 -74.5 2t-64.5 2h-84q14 -16 19.5 -30t5.5 -29v-14.5t-2 -16.5q-8 -39 -18 -88t-22 -103t-25 -109t-25 -106h85z" />
    <glyph glyph-name="G" unicode="G" horiz-adv-x="1213" 
d="M925 -9q-19 0 -32 2t-21 8t-11.5 18t-3.5 32q-30 -24 -68 -40.5t-80 -26.5t-85.5 -14.5t-85.5 -4.5q-95 0 -171 35.5t-129.5 99t-82 153t-28.5 197.5q0 132 31 257.5t87 236.5t134 203.5t171 159.5t198.5 104.5t217.5 37.5q81 0 145 -12t108 -35t67.5 -56t23.5 -74
q0 -54 -41 -100t-130 -92q-17 107 -87 163.5t-173 56.5q-72 0 -134 -37.5t-113 -100.5t-90.5 -145.5t-66.5 -172.5t-41 -182.5t-14 -174.5q0 -80 14 -144t41.5 -108t69.5 -67.5t98 -23.5q43 0 87 15t86 38q22 30 37.5 65t27 74t21 82.5t18.5 91.5q0 26 -4.5 37t-18.5 19
q-22 0 -44.5 -4t-45.5 -15q0 53 14.5 81t49 41t92 16.5t143.5 7.5q12 1 28 1t30.5 -2.5t24.5 -7.5t11 -14q1 -20 -5 -42.5t-13 -48.5q-19 -79 -34.5 -149t-27 -128.5t-17.5 -103t-6 -71.5q0 -28 9 -53.5t9 -42.5q-16 -10 -38 -17.5t-47.5 -12.5t-52.5 -7.5t-52 -2.5z" />
    <glyph glyph-name="H" unicode="H" horiz-adv-x="1301" 
d="M512 621q-8 -23 -14 -45.5t-11 -48.5q-19 -72 -40.5 -152.5t-41 -154.5t-33.5 -133t-18 -87q-3 -20 -3.5 -39.5t1.5 -39.5q-14 -9 -40.5 -19t-58 -18.5t-64 -14.5t-57.5 -6q-44 0 -59 14t-12 47q0 28 8.5 62.5t22.5 76.5q46 135 91.5 288t83 310.5t62.5 313.5t30 297
q0 29 -7 52.5t-22 54.5q54 30 99 45t91 15q20 2 43 -3.5t40 -19.5q17 -16 23 -38.5t6 -44.5q0 -15 -4.5 -62.5t-14 -118t-24.5 -159t-35 -184.5h384q20 0 36.5 0.5t31.5 4.5q8 21 16.5 45t13.5 50l127 556q13 61 47.5 91t98.5 25q19 -2 39 -7t38 -12.5t33.5 -17t24.5 -19.5
q-10 -11 -26 -62t-35 -128t-40.5 -173.5t-43 -197.5t-41 -199.5t-36 -181t-27.5 -140.5t-15 -78q-11 -55 -19.5 -104.5t-8.5 -85.5t10.5 -71t31.5 -64q0 -10 -13 -19.5t-33.5 -17.5t-46 -14.5t-50.5 -11t-46.5 -7t-33.5 -2.5q-61 0 -82.5 30.5t-21.5 87.5q0 37 8 84t19 92
q18 73 39 170t45 217q-40 -16 -99.5 -20t-126.5 -4q-46 0 -91.5 0.5t-87.5 0.5q-17 0 -32 -1t-29 -4z" />
    <glyph glyph-name="I" unicode="I" horiz-adv-x="571" 
d="M169 267q20 80 42.5 172t45 186.5t43 187t37.5 173.5q14 64 22.5 119.5t11.5 103.5q1 14 1.5 29.5t-3.5 29.5t-13 26t-28 20q-13 3 -18 19q-5 14 -4 17t9 8q28 17 59.5 30t62 22t59.5 13.5t53 4.5q26 0 53.5 -8t44.5 -29q17 -20 19.5 -50t-1.5 -54q-54 -231 -109 -458.5
t-101 -459.5q-11 -56 -19.5 -104t-8.5 -86q0 -37 11.5 -70.5t31.5 -64.5q0 -10 -13 -19t-33.5 -17t-46 -15t-50.5 -11.5t-46.5 -7t-33.5 -2.5q-61 0 -83 31t-22 87q0 37 8 84t19 93z" />
    <glyph glyph-name="J" unicode="J" horiz-adv-x="625" 
d="M-28 -131q42 3 74 20t57 43t44.5 59.5t36.5 71.5q36 86 63 211q21 85 43.5 175.5t44 182.5t42.5 183.5t40 179.5q27 128 33 224q1 15 1.5 30.5t-3 29.5t-13 25.5t-27.5 18.5q-14 6 -19 21q-5 14 -4 17t9 9q28 16 59.5 29t62 21t59.5 12.5t53 4.5q26 0 53.5 -7t44.5 -27
q19 -21 21 -51t-3 -56q-54 -231 -105 -459t-104 -459q-28 -122 -63.5 -223t-79.5 -178q-36 -69 -84.5 -122t-104.5 -89t-116.5 -54t-119.5 -18q-47 0 -84.5 8.5t-63.5 24.5t-40.5 37.5t-14.5 47.5q0 33 27 59t78 50q44 -52 103 -52z" />
    <glyph glyph-name="K" unicode="K" horiz-adv-x="1220" 
d="M1264 142q6 0 9 -3q2 -2 2 -5.5t-2 -4.5q-25 -79 -83.5 -122.5t-129.5 -43.5q-35 0 -67.5 9.5t-64 31.5t-64 56.5t-66.5 85.5q-45 65 -88.5 138t-81 144t-67 135.5t-45.5 111.5q-57 -244 -86 -383t-29 -185q0 -29 7.5 -46.5t9.5 -34.5q-16 -12 -39 -21.5t-50 -17
t-56 -11.5t-57 -4q-53 0 -77.5 18.5t-26.5 57.5q0 26 6.5 61t20.5 86q36 136 72 268.5t67.5 265t56.5 266.5t39 275q3 30 -2 53t-18 54q55 32 102 45t91 15q23 2 45.5 -3t37.5 -20q16 -16 21 -38.5t3 -44.5q-1 -9 -5.5 -38t-12 -72t-18.5 -97.5t-23.5 -115t-28 -124
t-31.5 -124.5q14 14 30 25.5t36 25.5q133 90 226 164t152 138t86.5 120.5t29.5 110.5q0 17 -1.5 34t-6.5 34q46 11 75.5 15.5t44.5 4.5q54 0 81.5 -29t27.5 -80q0 -50 -27.5 -111t-92.5 -132q-34 -36 -76.5 -72.5t-87 -72t-88 -69t-79 -64t-59 -57.5t-28.5 -48
q61 -122 124.5 -224t125.5 -175.5t122 -114.5t114 -41z" />
    <glyph glyph-name="L" unicode="L" horiz-adv-x="995" 
d="M148 111q0 39 11 118.5t30 184t44.5 226.5t55 245t61 239.5t63.5 211.5q8 28 24 47t38 36q23 15 47.5 20.5t45.5 4.5q44 -4 84.5 -17.5t80.5 -45.5q-26 -29 -42 -53t-28 -53q-30 -83 -59.5 -177.5t-55.5 -191.5t-48.5 -193t-38.5 -183t-25 -161.5t-9 -127.5q0 -20 6 -35
q21 -8 48 -12t55 -6.5t55.5 -3t51.5 -0.5q99 0 186 17t147 47q8 5 9 5q3 0 3 -12q-5 -95 -30.5 -146.5t-77 -76.5t-130 -29.5t-188.5 -4.5h-149t-148 -2q-38 0 -61 9t-35.5 25.5t-16.5 40.5t-4 54z" />
    <glyph glyph-name="M" unicode="M" horiz-adv-x="1664" 
d="M1447 1375q19 15 37 24.5t41.5 15.5t55 10.5t76.5 8.5q12 1 26.5 0t26.5 -6t18.5 -15.5t3.5 -28.5q-3 -16 -7.5 -40.5t-11 -55t-14.5 -65t-16 -69.5q-23 -99 -42 -196t-34.5 -187.5t-27.5 -172t-20 -149.5t-12 -119.5t-4 -82.5q0 -53 14.5 -104t40.5 -97q-9 -6 -32 -18.5
t-53 -25t-62.5 -22.5t-60.5 -10q-52 0 -82 25t-33 90q0 28 7 85.5t18 132.5t25 161t27 172t24.5 166t18.5 142q-12 -17 -24.5 -35.5t-26.5 -38.5q-65 -101 -129 -201.5t-119 -192t-98.5 -170t-68.5 -135.5q-31 -27 -68 -47.5t-89 -20.5q-26 0 -41 18t-24 53q-4 18 -13 60.5
t-21.5 100.5t-27 128t-30.5 143.5t-31.5 147t-29.5 138.5q-2 13 -5 22.5t-5 16.5q-7 -20 -12 -42t-10 -43q-33 -122 -63 -237t-52 -211.5t-35 -168.5t-13 -108q0 -35 6.5 -62.5t17.5 -51.5q-48 -16 -89.5 -24.5t-77.5 -8.5q-58 0 -86 20.5t-30 60.5q0 14 3 37.5t11 55.5
q4 16 14.5 53t25 88t32 112t36 125t36.5 126.5t33 117t27 96.5t18 65q22 85 44 168.5t46 168.5q2 31 -3 54t-19 53q57 32 103.5 45t91.5 15q38 3 69 -19t36 -60q6 -51 21.5 -142.5t38 -206.5t49 -245.5t54.5 -260.5q4 -18 9 -36.5t10 -35.5q8 11 18 24.5t21 31.5
q37 61 80 128t88 137t90.5 141.5t89.5 140.5q64 96 107 171.5t64 125.5q5 11 6.5 23t-3.5 23z" />
    <glyph glyph-name="N" unicode="N" horiz-adv-x="1353" 
d="M1152 4q-92 -30 -190 -30q-25 0 -52 35.5t-50 88.5q-3 8 -15.5 40t-31.5 80.5t-43 110t-49.5 127.5t-51.5 132.5t-49 126t-41.5 107.5t-29.5 77q-8 23 -14.5 44.5t-14.5 42.5q-22 -81 -43.5 -168.5t-40.5 -173t-36 -165t-29 -145t-19 -113t-7 -68.5q0 -42 9.5 -77.5
t30.5 -61.5q-50 -19 -94 -29.5t-79 -10.5q-58 0 -84 25.5t-26 81.5q0 32 11 85t29 122t40.5 150.5t46.5 171.5q16 61 33 126t33.5 128.5t31 123t25.5 109t17.5 87.5t6.5 58q0 61 -33 105q53 40 106.5 62.5t94.5 22.5q30 0 55.5 -16.5t48.5 -51.5t45 -91t46 -135
q39 -127 79 -251.5t78 -234.5t72 -198t61 -141q15 45 28.5 96t26.5 105t26 109.5t26 109.5q20 83 36 159.5t27.5 143.5t18 122t6.5 96q0 44 -9 79.5t-26 61.5q94 42 165 42q34 0 55.5 -10t34 -27t17 -39.5t4.5 -46.5q0 -17 -1.5 -33t-3.5 -31q-1 -7 -10 -44t-23.5 -95.5
t-33.5 -134t-40.5 -160t-44 -174t-44 -175.5l-41 -164l-35 -140t-25 -104t-11.5 -55z" />
    <glyph glyph-name="O" unicode="O" horiz-adv-x="1284" 
d="M929 1449q102 0 179 -31.5t129 -92t78.5 -148.5t26.5 -201q0 -117 -27.5 -238t-78.5 -234.5t-123 -213t-161 -174t-192.5 -117.5t-217.5 -43q-203 0 -304 122t-101 349q0 121 26.5 243.5t76 236t120.5 212.5t159 172.5t191.5 115.5t218.5 42zM626 111q72 11 132.5 61
t109.5 124t86 165.5t62 185.5t37.5 183.5t12.5 159.5q0 66 -11.5 121.5t-36.5 96t-64 63.5t-94 23q-57 0 -111.5 -39t-103.5 -104.5t-89.5 -151t-70.5 -178.5t-46.5 -188t-16.5 -178q0 -78 11 -144.5t35 -114t63 -71t95 -14.5z" />
    <glyph glyph-name="P" unicode="P" horiz-adv-x="1102" 
d="M455 406q-18 -90 -28 -163t-10 -123q0 -36 5 -57.5t13 -44.5q-35 -22 -90 -35t-111 -13q-58 0 -84.5 21.5t-26.5 59.5q0 35 7.5 74t17.5 81q63 259 117.5 483t86.5 402q4 25 8.5 53.5t4.5 51.5q0 26 -9.5 31.5t-21 6.5t-21 6t-9.5 30q3 36 8.5 58.5t21.5 35.5
q41 21 90.5 37.5t102.5 27.5t106.5 16.5t103.5 5.5q113 0 206 -17t159 -57t102 -106t36 -163q0 -110 -46.5 -207.5t-128.5 -170.5t-192.5 -115t-238.5 -42q-20 0 -34 11t-22.5 30t-12 42.5t-3.5 49.5q0 6 3.5 7t13.5 1q87 0 157.5 23t121 68.5t77.5 112.5t27 155
q0 62 -19 104.5t-54 69t-84 38t-110 11.5q-17 -2 -39 -4t-46 -8q16 -36 16 -83q0 -21 -3.5 -47t-10.5 -59q-19 -89 -39.5 -174.5t-41 -170t-40 -170.5t-36.5 -174z" />
    <glyph glyph-name="Q" unicode="Q" horiz-adv-x="1284" 
d="M1410 -140q5 1 9 -1.5t2 -7.5q-8 -25 -39 -63q-17 -23 -38.5 -46.5t-49.5 -43.5q-54 -46 -110 -69t-104 -23q-45 4 -77.5 13t-61 21.5t-58 28.5t-69.5 36q-58 29 -111.5 64t-109.5 67q-26 15 -54.5 30t-59.5 27q-33 13 -73 23.5t-91 20.5q-42 8 -72.5 16t-49.5 19
q-7 5 -10.5 15.5t-3.5 21.5q0 7 2.5 11.5t13.5 9.5q19 7 38.5 11t39.5 7q-66 60 -97.5 154.5t-31.5 223.5q0 120 26.5 242.5t76 236t120 212.5t158.5 172.5t191 115.5t218 42q102 0 179.5 -31.5t130 -92t79 -148.5t26.5 -200q0 -101 -21 -206t-60 -205.5t-95 -193
t-125.5 -169.5t-152 -133.5t-174.5 -85.5l74 -34t75 -31q63 -23 125.5 -45t130.5 -34q21 -4 43 -6.5t46 -2.5q19 0 38 1.5t39 3.5q20 3 37.5 6t34.5 7q14 3 26 6.5t20 6.5zM868 1292q-57 0 -111.5 -39t-103.5 -104.5t-90 -151t-71 -178.5t-46.5 -187.5t-16.5 -177.5
q0 -78 11 -144.5t35.5 -114t63.5 -71.5t95 -15q71 11 131.5 61t109.5 124t86 165.5t62 185.5t37.5 183.5t12.5 159.5q0 66 -12 122t-36.5 96.5t-63.5 63t-93 22.5z" />
    <glyph glyph-name="R" unicode="R" horiz-adv-x="1233" 
d="M1237 1139q0 -86 -30.5 -160t-86.5 -134t-134.5 -104.5t-174.5 -71.5q67 -169 125.5 -274.5t109.5 -168t94.5 -93.5t81.5 -50q-12 -30 -35 -52t-53 -36t-64 -20.5t-67 -6.5q-37 0 -66.5 10t-54.5 30t-47 50t-44 71q-25 46 -55 109t-60 133.5t-59 143t-51 137.5
q-14 2 -29.5 5t-31.5 10q-19 -88 -38 -170t-34.5 -152.5t-25 -126.5t-9.5 -91q0 -40 5 -63.5t5 -42.5q0 -8 -14 -14.5t-35.5 -12t-46.5 -9t-47 -6t-37.5 -4t-17.5 -1.5q-46 0 -68 18t-22 63q1 16 1.5 32.5t5.5 35.5q25 114 53.5 231t56.5 230t53 219t44 198
q12 60 19.5 107.5t7.5 82.5q0 41 -17 60t-43 36q14 42 57.5 73t107.5 51.5t144.5 30t167.5 9.5q105 0 189.5 -18.5t144.5 -57t92.5 -97t32.5 -139.5zM540 833q-2 -8 -3.5 -16t-1.5 -15q0 -14 7 -22t17.5 -11.5t22.5 -4.5t23 -1q82 0 148.5 23t114 66.5t73.5 106t26 140.5
q0 101 -59 151t-169 50q-48 0 -76 -4.5t-42.5 -13.5t-18.5 -22.5t-4 -31.5q14 -3 17.5 -11.5t3.5 -18.5q0 -13 -2 -18q-14 -82 -37 -170t-40 -177z" />
    <glyph glyph-name="S" unicode="S" horiz-adv-x="1064" 
d="M234 354q-6 -31 4 -64q11 -42 35.5 -75.5t59.5 -56t78.5 -34.5t91.5 -12q59 0 106.5 15t81.5 44t52 71.5t18 98.5q0 63 -30 113t-86 95q-54 45 -113 86t-108 88t-81 105t-32 138q0 109 45 198t121 152.5t175.5 98t207.5 34.5q57 0 108.5 -7t91 -23.5t62.5 -44t23 -69.5
q0 -24 -11 -48t-28.5 -45t-39.5 -38t-43 -27q-22 35 -46 63t-53.5 47.5t-65.5 30t-82 10.5q-49 0 -89 -12t-68.5 -35.5t-44 -58.5t-15.5 -82q0 -42 13.5 -74.5t48.5 -69t95.5 -84t153.5 -119.5q35 -32 63.5 -65t48.5 -70.5t30.5 -79.5t10.5 -91q0 -75 -24.5 -141t-68 -121.5
t-101.5 -99.5t-124.5 -74.5t-139 -46.5t-143.5 -16q-59 0 -123.5 12t-118.5 36.5t-89.5 61.5t-35.5 87q0 28 13 58t36.5 57.5t56.5 49.5t73 34z" />
    <glyph glyph-name="T" unicode="T" horiz-adv-x="805" 
d="M556 1240q-19 0 -36.5 1t-36.5 1q-78 0 -131.5 -16t-93.5 -37q-13 -8 -25.5 -12t-20.5 -4q-2 17 -3 35.5t-1 33.5q0 98 46.5 142t137.5 44q142 0 279.5 -2.5t272.5 -2.5q54 0 96.5 4.5t78 11t65 13t58.5 11.5q2 -5 3 -12t1 -16q-3 -104 -54 -152t-132 -48q-18 0 -42.5 1
t-51 2.5t-51 2.5t-41.5 1q-25 0 -39 -6t-19 -27q-11 -45 -25 -105t-30.5 -129.5t-34 -146.5t-35.5 -155.5t-35.5 -156t-32.5 -149.5q-14 -66 -24.5 -128.5t-10.5 -113.5q0 -16 2 -28.5t5 -24t7.5 -23.5t9.5 -27q-23 -14 -50.5 -24t-54.5 -16t-52 -9t-42 -3q-116 0 -116 91
q0 31 6 77.5t23 109.5q3 12 13.5 55t25.5 106t33.5 140t37.5 158t37.5 160t33.5 144.5t26 113.5t14 66q3 14 5 25.5t4 23.5z" />
    <glyph glyph-name="U" unicode="U" horiz-adv-x="1296" 
d="M1015 -37q-38 4 -60 22t-33 44t-14 57t-3 63v65q0 6 -1 4q-49 -56 -98.5 -103.5t-103.5 -82t-114.5 -54.5t-130.5 -20q-84 0 -141 28.5t-91.5 75.5t-49.5 107t-15 124q0 45 6 87q7 51 22 125t34 158.5t40 172.5t38 168t29 144.5t14 101.5q0 27 -4.5 44.5t-11.5 31
t-14.5 24t-13.5 22.5q21 18 52 29.5t64 19t64 10.5t52 3q95 0 101 -83q0 -37 -9 -92.5t-23 -122t-32 -141t-37 -149.5t-36.5 -147.5t-30.5 -134.5q-14 -71 -25.5 -133t-11.5 -112q0 -81 33.5 -125.5t100.5 -44.5q58 0 125.5 39t135.5 120q39 53 67 129t51 164q23 83 48 182
t47.5 196.5t40.5 185t26 147.5q2 13 0.5 19.5t-3.5 17.5q-5 28 8.5 45t37 26t53 11.5t57.5 2.5q46 0 74.5 -3t45 -11t22.5 -21t6 -33q-2 -29 -14 -62.5t-25 -75.5q-36 -120 -71.5 -250t-64 -254t-46 -235.5t-17.5 -195.5q0 -23 1 -44t4 -39q11 -67 26 -112t48 -74
q-50 -35 -108.5 -50.5t-120.5 -10.5z" />
    <glyph glyph-name="V" unicode="V" horiz-adv-x="1185" 
d="M429 22q-22 206 -46.5 409.5t-50.5 409.5q-11 91 -26.5 171.5t-32.5 146.5q-20 66 -44.5 113t-62.5 73q101 88 234 90q53 0 88 -41.5t57 -138.5q8 -42 15.5 -84t12.5 -84q10 -68 19.5 -149.5t18.5 -172.5t17.5 -189t16.5 -198q92 147 166 268.5t132 223t100 185.5t70 156
q19 43 30.5 91t1.5 95q82 31 167 31q46 0 71 -16.5t27 -47.5q0 -20 -8.5 -42.5t-19.5 -53.5q-20 -53 -62 -127t-92 -153q-107 -169 -198 -314.5t-163.5 -268t-124.5 -220.5t-82 -172q-6 -9 -25.5 -19.5t-45 -19t-53.5 -14.5t-49 -6q-29 0 -41 15t-17 53z" />
    <glyph glyph-name="W" unicode="W" horiz-adv-x="1786" 
d="M1030 1312q32 14 56 24t44 17t38 12t39 8q28 5 42 -15t14 -58q0 -36 -2 -74.5t-2 -78.5q0 -9 1 -44.5t2 -87.5t3 -115.5t3.5 -129.5t3.5 -129.5t4 -115t3 -87t2 -44.5l6 -77q83 167 150 304.5t118 250.5t85.5 205t53.5 169q4 18 5.5 37t1.5 36q0 54 -16 102q25 8 51 11
t52 3q83 0 123.5 -27.5t40.5 -89.5q-1 -48 -22 -112t-53 -134.5t-70 -142.5t-73 -136l-77 -144q-48 -90 -99.5 -182.5t-96.5 -176t-79 -152.5t-49 -112q-4 -8 -20.5 -18t-42 -20t-57 -18t-65.5 -12q-28 -2 -43 10t-18 41q-3 26 -7 77t-9 118.5t-11 147.5t-11.5 165
t-11 170.5t-10.5 163.5q-2 0 -17.5 -27.5t-40.5 -73t-56.5 -104.5t-65 -122t-66.5 -125.5t-61 -115.5t-48.5 -91t-28.5 -52q-15 -26 -27.5 -54.5t-24.5 -59.5q-3 -8 -19 -18t-41 -20t-56.5 -18t-65.5 -12q-27 -2 -44 10t-19 41q-7 254 -17.5 505.5t-22.5 505.5
q-5 93 -19.5 153t-31 96t-32.5 53t-24 25q25 19 53 35.5t55.5 28t53 18t47.5 6.5q37 0 65 -18t47 -65t30 -128.5t16 -208.5q3 -71 5 -145.5t4 -146t3 -136t1 -115.5v-53t-2 -45q102 192 176 336t125 248.5t82 174t46 113.5q5 17 11 33.5t13 32.5z" />
    <glyph glyph-name="X" unicode="X" horiz-adv-x="1255" 
d="M779 853q63 74 119.5 144.5t99 131.5t67 110t24.5 80q0 26 -3.5 45t-12.5 39q35 15 73 23t73 8q61 0 93 -24.5t32 -71.5q0 -46 -20 -91t-56 -97q-32 -45 -78.5 -98t-102 -111t-117.5 -119t-124 -124q15 -46 35.5 -96t43 -99.5t46 -97t44.5 -88.5q35 -66 88.5 -116.5
t125.5 -73.5q-32 -41 -67.5 -70.5t-70 -48t-66.5 -27.5t-58 -9q-50 0 -95.5 43.5t-88 118.5t-83.5 175t-81 213q-42 -43 -78 -91t-65.5 -96.5t-51.5 -96t-34.5 -88.5t-15.5 -74.5t6 -54.5q-32 -12 -62.5 -18.5t-62.5 -6.5q-128 0 -128 78q0 35 36 105t108 171
q72 102 136.5 179t125.5 140q-29 72 -54.5 154.5t-44.5 162t-30.5 148.5t-11.5 112q0 182 268 240q-4 -12 -3.5 -45t5.5 -81.5t15.5 -108.5t25 -126t33.5 -135.5t43 -136.5z" />
    <glyph glyph-name="Y" unicode="Y" horiz-adv-x="1071" 
d="M853 697q-48 -64 -92 -145.5t-78.5 -163t-55 -154t-20.5 -118.5q0 -23 5.5 -50t13.5 -50q-38 -19 -89 -32.5t-104 -13.5t-84.5 20t-31.5 65q0 53 26 116.5t59 132.5t63.5 141t39.5 143q-23 142 -55.5 266t-70.5 219.5t-78 157t-76 78.5q-14 5 -24.5 11.5t-21.5 10.5
q122 116 241 116q53 0 92.5 -27t62.5 -84q20 -46 38.5 -106t36.5 -130t35 -147t34 -157q59 95 101 163t72 116.5t50 81.5t34.5 59t26 49t24.5 51q12 26 16.5 54.5t4.5 57.5q0 16 -1 32t-4 31q14 3 27 3.5t27 0.5q99 0 148 -33t49 -87q0 -47 -24.5 -104.5t-63.5 -120
t-87.5 -126.5t-97.5 -123.5t-93.5 -112t-74.5 -91.5z" />
    <glyph glyph-name="Z" unicode="Z" horiz-adv-x="1180" 
d="M357 171q100 -3 198.5 -4t198.5 -1h132q72 0 141 18.5t130 70.5q2 -19 2 -36.5v-32.5q0 -195 -183 -207q-57 -3 -114 -3q-108 0 -211.5 8.5t-210.5 13.5q-17 2 -35 2h-34q-81 0 -146 -8t-130 -22q-24 12 -39.5 36.5t-22.5 50.5q-13 47 18 91q4 5 29.5 35t66 78t94 111
t113.5 134t124.5 146.5t127 150t121 143.5t106.5 127t83.5 101.5t52.5 65.5q-146 -3 -292 -3q-18 0 -43 -1.5t-51 -3t-51 -2.5t-42 -1q-81 0 -132 49.5t-54 153.5q0 9 1 16t3 14q29 -5 58.5 -12.5t65 -15t78 -12.5t97.5 -5q182 0 361.5 11.5t360.5 34.5q5 -20 9 -39.5
t4 -39.5q0 -28 -12.5 -57t-35 -61t-55 -69t-71.5 -80q-5 -6 -30 -35t-64.5 -75t-90 -105t-106.5 -124.5t-115 -134.5t-115.5 -134.5t-107 -124.5t-89.5 -104.5t-63.5 -74t-29.5 -34.5z" />
    <glyph glyph-name="bracketleft" unicode="[" horiz-adv-x="680" 
d="M445 1264q9 42 36.5 71t65 47t81.5 26.5t86 8.5t80.5 4.5t77.5 4.5q10 0 18.5 -2.5t6.5 -9.5q-8 -38 -19 -68.5t-25 -53.5q-4 -6 -28 -10.5t-54.5 -8t-61.5 -8.5t-49 -13q-16 -66 -35 -146.5t-39 -170.5t-41 -186.5l-42 -193t-40 -190t-36 -177.5q-5 -33 -9.5 -60.5
t-4.5 -48.5q0 -49 25 -69.5t79 -20.5q23 0 52.5 0.5t68.5 5.5q-6 -56 -23 -86.5t-43 -45.5t-60.5 -18t-76.5 -3q-59 0 -105 4t-78 19t-49.5 45t-18.5 81q0 32 5 82t19 122q24 129 53 268.5t60 279t63 273t61 248.5z" />
    <glyph glyph-name="backslash" unicode="\" horiz-adv-x="811" 
d="M137 1428q24 3 47 5t41 2q39 0 65.5 -7t47.5 -20.5t38 -34t37 -47.5q21 -42 48.5 -109t59 -156t67 -199t73.5 -237q42 -135 77 -251t60.5 -205.5t39.5 -150t15 -85.5q3 -24 -4 -39.5t-21 -23.5t-34.5 -11t-42.5 -3q-32 0 -63.5 2t-57.5 2q5 95 -35 287.5t-123 473.5
q-46 145 -92.5 275.5t-90.5 236t-83 182t-69 113.5z" />
    <glyph glyph-name="bracketright" unicode="]" horiz-adv-x="680" 
d="M715 1264q-21 -115 -46.5 -248.5t-52.5 -273t-56 -279t-57 -268.5q-15 -72 -33 -122t-27 -82q-24 -51 -54 -81t-69 -45t-87 -19t-106 -4q-33 0 -60.5 1.5t-48 9t-31.5 22.5t-11 42q0 15 3 34.5t12 43.5q37 -5 66 -5.5t52 -0.5q54 0 86.5 20.5t55.5 69.5q4 21 11.5 48.5
t17.5 60.5q19 84 39 177.5t40 190t39 193t36.5 186.5t32.5 170.5t27 146.5q-17 8 -47.5 13t-59.5 8.5t-51 8t-23 10.5q-2 23 0.5 53.5t6.5 68.5q2 7 12 9.5t20 2.5q39 0 76 -4.5t79 -4.5q41 0 81 -8.5t70.5 -26.5t46.5 -47t10 -71z" />
    <glyph glyph-name="asciicircum" unicode="^" horiz-adv-x="1075" 
d="M1062 596q-23 -25 -56 -25q-56 0 -105.5 32t-92.5 88t-80 131.5t-68 162.5q-130 -183 -245 -284t-227 -130h-4q-11 0 -29 6.5t-26 20.5q13 14 27.5 31.5t29.5 31.5q65 65 130 140.5t124 154t109 156.5t85 149q10 20 21.5 36t24.5 30q41 -8 65 -24.5t39 -40t24 -53
t20 -62.5q22 -68 52 -146t62.5 -153.5t64 -142t55.5 -109.5z" />
    <glyph glyph-name="underscore" unicode="_" horiz-adv-x="877" 
d="M814 -137q-5 -35 -11.5 -65t-17.5 -64q-7 0 -15 2t-18 4q-48 5 -103 9t-118 4q-25 0 -54 -0.5t-62 -0.5h-114q-106 0 -170.5 13.5t-81.5 42.5q6 28 10 47.5t7.5 33t8.5 22.5t13 17q5 -2 8.5 -3t8.5 -1q43 -4 101 -5.5t128 -1.5h116q56 0 97 1t67 1q85 0 135.5 -14
t64.5 -42z" />
    <glyph glyph-name="grave" unicode="`" horiz-adv-x="809" 
d="M881 1161q0 -8 -8 -15t-20 -11.5t-26 -6t-25 0.5q-84 17 -158.5 43.5t-130.5 57t-89 62t-33 59.5q0 18 18.5 38t49 36t69.5 24t80 2q18 -26 35 -52t35.5 -51t40.5 -49.5t50 -46.5q15 -12 34.5 -25.5t36.5 -26.5t29 -23t12 -16z" />
    <glyph glyph-name="a" unicode="a" horiz-adv-x="1066" 
d="M1041 245q44 48 71.5 70t41.5 22q9 0 9 -17q0 -33 -15 -71t-40.5 -75t-58.5 -71t-69.5 -60t-73.5 -41.5t-69 -15.5q-77 0 -120.5 47.5t-43.5 147.5q0 16 0.5 36t2 40.5t3 39.5t3.5 33q-104 -170 -203.5 -256t-191.5 -90h-20q-55 0 -93 19t-61.5 53.5t-34 82t-10.5 104.5
q2 89 25.5 180t63.5 175.5t94.5 158.5t118.5 129t135.5 86.5t145.5 31.5q54 0 99 -11.5t82 -39.5q21 24 51 36t65 12q42 0 82.5 -11.5t80.5 -32.5q-17 -25 -37 -77t-40 -118t-38.5 -139.5t-33 -142.5t-23 -128t-8.5 -94q0 -14 0.5 -28t2.5 -25t6 -18t11 -6q23 2 43.5 20
t46.5 44zM564 346q35 51 67.5 106.5t60 109.5t50 105t37.5 93q-7 28 -23 48.5t-36.5 33.5t-43.5 19t-44 6q-37 0 -73 -27.5t-69 -73.5t-61 -106.5t-48.5 -126.5t-32 -133t-11.5 -127q3 -49 17.5 -72.5t43.5 -23.5t70.5 44t95.5 125z" />
    <glyph glyph-name="b" unicode="b" horiz-adv-x="1036" 
d="M295 1006q15 77 24 130.5t9 96.5q0 45 -18 86q53 31 101 44.5t92 13.5q19 0 36 -4.5t30.5 -15t21.5 -26.5t8 -40q0 -27 -10 -86.5t-28.5 -144t-45.5 -191t-60 -226.5q118 190 231 278.5t209 88.5q58 0 95 -23.5t58 -61t28.5 -84.5t7.5 -95q0 -83 -20.5 -172t-58 -173
t-90 -159.5t-117 -132.5t-138.5 -90t-155 -33q-53 0 -103.5 13.5t-95.5 40.5q-25 -26 -56.5 -36.5t-68.5 -10.5q-71 0 -146 42q25 40 45.5 91t40.5 125q19 78 40.5 168t44 187t45.5 198.5t44 201.5zM814 640q2 14 3 30t1 34q0 21 -2.5 41t-9 35t-18.5 24.5t-30 9.5
q-23 0 -56 -29.5t-71 -78t-78.5 -110t-77 -126t-66.5 -126.5t-48 -110q2 -28 17 -48.5t37.5 -34t49 -20t52.5 -6.5q49 0 98 44t89.5 116t69.5 164.5t40 190.5z" />
    <glyph glyph-name="c" unicode="c" horiz-adv-x="841" 
d="M853 299q9 -16 12 -31t3 -32q0 -40 -22.5 -74t-60 -62.5t-85.5 -50.5t-98.5 -36.5t-99 -22.5t-87.5 -8q-332 0 -332 311q0 92 23 180.5t64.5 167.5t99 146t127.5 115.5t150 76t165 27.5q119 0 175.5 -29t56.5 -87q0 -26 -13 -49.5t-36.5 -43.5t-55.5 -36t-69 -28
q-9 40 -20 68t-26 44.5t-35.5 24t-48.5 7.5q-58 0 -107.5 -36.5t-86 -105.5t-57 -168t-20.5 -224q0 -42 8 -80t24.5 -66.5t43 -45t63.5 -16.5q49 0 97.5 11.5t93 33t83.5 51.5t71 68z" />
    <glyph glyph-name="d" unicode="d" horiz-adv-x="1067" 
d="M1048 253q86 92 111 92q11 0 11 -17q0 -34 -15 -72t-40.5 -75t-58.5 -70.5t-69 -59.5t-73 -41t-70 -15q-81 0 -123 48t-42 152q0 33 3 74t7 68q-57 -93 -113.5 -160t-112 -110t-107.5 -63t-100 -20q-44 0 -78.5 17.5t-58.5 49.5t-36.5 77t-12.5 101q0 86 21.5 176
t60 175.5t92 160.5t118.5 131.5t138.5 89.5t151.5 33q54 0 95.5 -13t82.5 -34q20 82 31 154t11 129q0 23 -4 43.5t-15 37.5q49 28 98.5 42t89.5 14q53 0 78.5 -26.5t25.5 -77.5q0 -43 -7 -83t-18 -82q-34 -148 -67 -275t-58.5 -231.5t-41 -186.5t-15.5 -141q0 -27 6.5 -46
t13.5 -31q14 3 38.5 21t51.5 44zM619 420q48 77 88.5 155.5t75.5 156.5q-5 27 -18.5 49.5t-33.5 38t-44.5 24.5t-50.5 9q-37 0 -73.5 -24.5t-69.5 -67t-61.5 -99.5t-49.5 -121.5t-33 -133t-12 -134.5q6 -96 59 -96q38 0 96 64t127 179z" />
    <glyph glyph-name="e" unicode="e" horiz-adv-x="885" 
d="M545 127q99 10 177 51.5t150 111.5q19 -35 16.5 -74.5t-28.5 -71.5q-23 -29 -57.5 -54.5t-79.5 -45.5q-137 -62 -292 -62q-162 0 -251.5 70t-96.5 213q-3 71 7.5 141t33.5 136t59 126t84 111q94 112 208 169.5t239 57.5q116 0 172 -48.5t54 -143.5q0 -47 -29 -98.5
t-83 -102t-130 -95.5t-169 -78q-22 -8 -53 -21t-59 -29t-48 -34.5t-21 -36.5q-2 -34 3 -61.5t18 -45.5q30 -45 76.5 -68.5t99.5 -16.5zM385 527q-2 -10 -5 -22q-2 -11 -5.5 -26t-7.5 -34q12 25 28 43t35.5 32t42.5 26.5t49 26.5q44 24 73.5 48t48.5 47t29.5 47t17.5 48t6 46
t-9.5 38.5t-25 26t-41.5 9.5q-75 0 -135.5 -91.5t-100.5 -264.5z" />
    <glyph glyph-name="f" unicode="f" horiz-adv-x="732" 
d="M-23 -243q70 57 116.5 134t63.5 166q3 15 9.5 49t15 81t19.5 103t22 113.5t22 112.5t20.5 101.5t16.5 80t10 46.5h-39q-15 0 -33 2.5t-33.5 7.5t-25.5 12.5t-10 16.5q0 3 1 4.5t1 3.5q11 32 22 51.5t28.5 30.5t46 15t74.5 4q6 23 11.5 46.5t10.5 46.5q25 101 80.5 178.5
t132 130t169.5 79.5t194 27q37 0 69 -4t55.5 -15t37 -30.5t13.5 -50.5t-35.5 -66.5t-104.5 -68.5q-51 105 -141 105q-17 0 -36.5 -6.5t-37.5 -18t-34 -25.5t-26 -29q-26 -39 -50.5 -113t-47.5 -186h68q54 0 110 6.5t105 6.5q1 -6 1 -11.5v-10.5q0 -42 -19.5 -69t-51 -42
t-70 -20.5t-76.5 -5.5q-26 0 -50.5 1t-49.5 1q-17 -76 -32.5 -154t-33.5 -159t-40.5 -165t-52.5 -172q-23 -68 -60.5 -128.5t-86.5 -111.5t-108.5 -90.5t-127.5 -64.5q-5 -2 -9.5 -3t-8.5 -1q-20 0 -26.5 8.5t-6.5 19.5q1 10 6 14.5t13 15.5z" />
    <glyph glyph-name="g" unicode="g" horiz-adv-x="1058" 
d="M971 -177q41 -26 55.5 -40t14.5 -18q-7 0 -29 13.5t-56 28.5q1 0 -16 7.5t-41 18t-51 21.5t-46 17q-72 -118 -192 -181t-275 -63q-78 0 -152 15.5t-132 41.5t-93 59t-35 69q0 28 15.5 60.5t56 60t111 46t181.5 18.5q78 0 159.5 -8t149.5 -23q26 72 52.5 175.5t55.5 242.5
q-59 -82 -116 -140q-57 -59 -112 -96t-106.5 -54t-98.5 -17q-50 0 -84.5 19.5t-56.5 53.5t-32 80.5t-10 101.5q0 83 20 165t56.5 156.5t87.5 138.5t114.5 111t136.5 74t153 27q53 0 102 -12.5t93 -38.5q26 23 59 34.5t68 11.5q70 0 148 -41q-18 -27 -33.5 -61t-31 -79.5
t-31 -105t-33.5 -137.5q-26 -135 -52.5 -255t-47.5 -204q0 -1 -1 -2q-17 -71 -36.5 -122.5t-39.5 -90.5q32 -12 74 -33t77 -45zM415 273q42 0 93.5 43.5t104 114t101.5 159t86 179.5q-3 18 -18.5 35.5t-38 31.5t-49.5 22.5t-52 8.5q-59 0 -111 -44.5t-90.5 -117t-61 -164.5
t-22.5 -187q0 -40 16.5 -60.5t41.5 -20.5zM526 -165q27 30 56 93q-65 14 -142.5 20.5t-150.5 6.5h-58t-58 -4t-45 -13.5t-18 -27.5q0 -9 6 -18q42 -59 105.5 -93t137.5 -34q104 0 167 70z" />
    <glyph glyph-name="h" unicode="h" horiz-adv-x="1076" 
d="M445 577q45 82 102 157t119 132.5t127.5 91.5t128.5 34q62 0 96 -36t34 -114q-1 -49 -15.5 -117.5t-32 -146t-32 -158.5t-14.5 -156q0 -14 1 -28t3.5 -25.5t7 -19t11.5 -7.5q19 0 41.5 18.5t48.5 45.5q44 47 69.5 70t41.5 23q10 0 10 -15q0 -33 -15 -71t-40.5 -75
t-58.5 -71.5t-69.5 -60.5t-73.5 -41.5t-70 -15.5q-77 0 -121 47t-44 146q0 19 1.5 48t5.5 64t11 75.5t19 83.5q25 88 35.5 153t12.5 106q0 8 -1.5 17.5t-5 18t-9 14.5t-13.5 6q-30 0 -76.5 -49t-102.5 -138t-119 -214t-126 -277q-11 -25 -22.5 -43.5t-29 -31t-41.5 -18.5
t-60 -6q-26 0 -62 3.5t-80 10.5q106 277 173 578t107 616q0 6 1 10.5t1 8.5q0 23 -5.5 42t-16.5 43q57 32 105.5 45.5t93.5 13.5q40 0 66 -21.5t26 -65.5v-8t-2 -8q-2 -17 -12 -79t-28.5 -155t-44 -209t-56.5 -241z" />
    <glyph glyph-name="i" unicode="i" horiz-adv-x="545" 
d="M575 1445q43 0 64.5 -13.5t23.5 -34.5v-10t-2 -12q-3 -13 -8.5 -26t-13.5 -29t-20.5 -36.5t-30.5 -48.5q-30 -47 -48 -72.5t-35.5 -39t-40.5 -20t-63 -14.5q-29 -6 -47.5 -3t-29.5 11.5t-15.5 20.5t-4.5 23q0 20 5 48.5t11 60t10.5 64t3.5 59.5q0 7 -3.5 13t-6.5 13
q57 22 121 34t130 12zM487 247q121 133 121 75q0 -29 -29 -99q-20 -45 -55 -87t-77 -75t-85.5 -52.5t-79.5 -19.5q-74 0 -116.5 41.5t-47.5 127.5q-2 15 -1.5 44t4.5 68t12 86t22 99q23 84 36.5 160t24.5 127q5 28 7 53.5t2 46.5q0 52 -28 92q49 18 95 28.5t90 10.5
q23 0 49 -6t42 -23q34 -35 23 -96q-5 -23 -9 -45t-12 -47q-10 -39 -21 -79t-20.5 -76.5t-17.5 -66.5t-12 -49q-6 -24 -11 -54.5t-8.5 -61.5t-6 -59t-2.5 -48q0 -14 0.5 -28t2.5 -25.5t6 -18.5t11 -7q17 0 40 19t51 45z" />
    <glyph glyph-name="j" unicode="j" horiz-adv-x="535" 
d="M540 758q-7 -26 -18 -69t-24.5 -95.5t-28.5 -110t-29.5 -112.5t-27 -104t-21.5 -84q-28 -106 -59 -181t-63 -125q17 -5 44 -14l52.5 -17.5t43.5 -15t18 -7.5q0 -4 -14 -4q-9 0 -19 -0.5t-28 1.5t-46 7t-73 16q-79 -109 -171.5 -161.5t-195.5 -52.5q-32 0 -62 7.5
t-52.5 22t-36 36t-13.5 48.5q0 44 18 79t51 59.5t79.5 37.5t103.5 13q23 0 44.5 -2.5t40.5 -5.5q23 48 45 111.5t46 145.5q8 28 20 77.5t26.5 109.5t29.5 124.5t27.5 121t22 99t12.5 59.5q3 14 4.5 22.5t2.5 15.5t1 14v18q0 50 -28 92q48 18 94.5 28.5t89.5 10.5q23 0 44 -5
t37.5 -16t26.5 -29.5t10 -45.5q0 -26 -8 -56.5t-16 -62.5zM-61 -204q23 5 47.5 30.5t46.5 60.5q-20 0 -36.5 2t-35.5 2q-36 0 -65 -6t-50 -15t-32 -19.5t-11 -19.5q0 -11 9 -18.5t23 -12.5t31 -7.5t34 -2.5q19 0 39 6zM640 1445q42 0 65 -13.5t23 -34.5q0 -16 -4 -31.5
t-13 -33.5t-23.5 -41.5t-35.5 -55.5q-30 -47 -48 -72.5t-35.5 -39t-40 -20t-62.5 -14.5q-9 -2 -17 -3t-16 -1q-19 0 -31 5.5t-19.5 13.5t-10.5 18t-3 19q0 19 4.5 46.5t10 58.5t10 62.5t4.5 59.5q0 10 -2.5 15.5t-6.5 15.5q57 22 120.5 34t130.5 12z" />
    <glyph glyph-name="k" unicode="k" horiz-adv-x="976" 
d="M499 1364q42 0 66 -23.5t24 -68.5q0 2 -4.5 -25t-13 -77t-21.5 -120t-30 -152.5t-37.5 -174.5t-44.5 -187q166 229 289.5 345t208.5 116q48 0 73 -45t32 -136q-39 0 -81.5 -13t-89 -41.5t-97.5 -74t-108 -110.5q0 -5 -1 -10t-1 -11q0 -12 2.5 -25.5t7.5 -27.5
q16 -50 37 -102t49 -94.5t65 -69.5t87 -27q35 0 73.5 14t84.5 43q8 4 7 4q4 0 4 -7q0 -5 -1 -7.5t-3 -5.5q-18 -48 -52 -93.5t-76 -81t-88.5 -57t-89.5 -21.5q-41 0 -78.5 21.5t-73.5 69.5t-72 125t-74 187q-17 -32 -32 -63.5t-30.5 -67.5t-33.5 -79.5t-40 -98.5
q-10 -25 -22 -43.5t-29.5 -31t-42 -18.5t-59.5 -6q-28 0 -63 3.5t-80 10.5q106 277 173 578t107 616q0 6 1 10.5t1 8.5q0 23 -5 42t-16 43q54 30 99 43t89 16h10z" />
    <glyph glyph-name="l" unicode="l" horiz-adv-x="608" 
d="M383 183q40 0 74 12.5t63 33.5q31 23 58 43.5t49 35.5t37 24t22 9q11 0 -1.5 -29t-56.5 -98q-32 -50 -79 -91.5t-97.5 -71t-99.5 -46t-83 -16.5q-74 0 -119 41t-45 127q-2 30 3 65.5t13 88.5q3 11 4.5 23.5t3.5 24.5q-50 -36 -72.5 -51t-26.5 -15q-3 0 3 7t18.5 18.5
t30 27.5t38.5 34q-2 -2 2 2t15 12q51 220 110.5 439.5t125.5 436.5q7 21 23.5 42.5t38.5 36.5q22 16 46 21t45 3q40 -2 78.5 -15t77.5 -42q12 -12 15 -27q0 -2 2.5 -18.5t2.5 -48.5q0 -14 -0.5 -30t-3.5 -35q-7 -58 -30 -124.5t-52 -135.5q-24 -54 -51.5 -103.5t-54 -90.5
t-49 -72.5t-35.5 -48.5l-2 -11q-3 -13 -5.5 -26.5t-7.5 -27.5q-5 -22 -12.5 -58.5t-15 -74.5t-13 -72.5t-5.5 -51.5q0 -14 0.5 -27.5t2 -24.5t5 -18t10.5 -7zM531 962q-23 -68 -42.5 -137.5t-36.5 -138.5q30 44 64.5 104.5t63.5 129.5q29 65 51.5 128.5t28.5 116.5
q1 20 2 37t-1 31q0 14 -12.5 18t-20.5 -9q-4 -7 -8 -15t-6 -16q-24 -63 -45 -124.5t-38 -124.5z" />
    <glyph glyph-name="m" unicode="m" horiz-adv-x="1613" 
d="M1220 153q2 57 16.5 121.5t27.5 125.5q35 156 53 242.5t18 101.5q0 19 -7 25.5t-21 6.5q-21 0 -56.5 -35.5t-77.5 -93.5t-87 -132.5t-84 -152.5t-68 -153t-40 -135q0 -10 1 -20t6 -23q-7 -6 -21.5 -12.5t-32.5 -12t-38 -9.5t-37 -4q-40 0 -71 13.5t-58 41.5
q32 134 60 250.5t49 207.5t33.5 152.5t12.5 85.5q0 20 -7.5 27t-21.5 7q-19 -1 -45.5 -24.5t-58 -62t-66 -88t-68.5 -100.5q-23 -34 -43 -71.5t-41.5 -85.5t-46.5 -109.5t-59 -142.5q-11 -25 -22.5 -44t-28.5 -31.5t-41 -19t-59 -6.5q-55 0 -144 16q55 135 94.5 263
t65 236.5t37.5 192t12 129.5q0 67 -23 121q120 52 194 52q42 0 71 -24t29 -66q0 -54 -18 -131.5t-44 -174.5q64 99 128 174t124.5 125.5t114 76t96.5 25.5q26 0 49 -7.5t40.5 -22.5t27.5 -37.5t10 -52.5q0 -70 -11 -143.5t-31 -134.5q64 102 128 176.5t124 124t112.5 73.5
t92.5 24q28 0 51 -10.5t39.5 -28.5t26 -42t9.5 -51q0 -51 -8.5 -107.5t-21.5 -115t-28.5 -115.5t-28.5 -108.5t-21.5 -95t-8.5 -74.5q0 -14 0.5 -28t2 -25.5t5.5 -18.5t11 -7q12 0 30.5 11.5t39 29.5t41.5 38t39.5 38t31.5 29.5t18 11.5q11 0 11 -17q0 -33 -15 -70.5
t-40.5 -75t-58.5 -71.5t-69.5 -60.5t-73.5 -42t-70 -15.5q-75 0 -118 40t-43 126z" />
    <glyph glyph-name="n" unicode="n" horiz-adv-x="1085" 
d="M770 778q-19 0 -44.5 -20.5t-55 -55t-62 -80t-64.5 -96.5q-34 -55 -58 -99t-45.5 -91.5t-45 -105t-56.5 -138.5q-10 -25 -22 -43.5t-29 -31t-42 -18.5t-60 -6q-28 0 -63.5 3.5t-80.5 10.5q31 77 58.5 155.5t50.5 156.5q54 179 77 307.5t23 203.5q0 35 -5 65.5t-16 53.5
q61 28 109.5 40t84.5 12q17 0 34.5 -5t31.5 -15.5t23 -27t9 -40.5q0 -57 -20.5 -142t-46.5 -194q43 80 100 157t120 137.5t127.5 97.5t122.5 37q31 0 57 -10t44.5 -28t29 -42.5t10.5 -53.5q0 -63 -18 -156t-44 -202q-10 -34 -19.5 -68t-17.5 -67t-13 -62.5t-5 -54.5
q0 -14 0.5 -28t2.5 -25.5t6 -18.5t11 -7q14 0 38.5 18t50.5 46q45 46 70 69t40 23q6 0 9 -3t3 -12q0 -34 -15 -72t-40.5 -75.5t-59 -71t-70 -59.5t-73.5 -41.5t-69 -15.5q-73 0 -119 41t-46 128q0 48 11 98t25 113q36 157 55 252t19 116q0 23 -8.5 32t-19.5 9z" />
    <glyph glyph-name="o" unicode="o" horiz-adv-x="986" 
d="M269 800q86 96 192 151t227 55q75 0 137 -22.5t106.5 -64.5t69 -103t24.5 -137q0 -87 -21.5 -172t-60.5 -162.5t-93.5 -144t-121 -115t-143 -76t-158.5 -27.5q-76 0 -138 23.5t-106.5 67.5t-68.5 107.5t-24 143.5q0 135 45.5 254t133.5 222zM751 679q0 40 -6 75t-20 61
t-37 40.5t-56 14.5q-41 0 -77 -27t-66 -72.5t-54 -104t-40.5 -121.5t-25 -125.5t-8.5 -115.5q0 -41 6.5 -75.5t21 -59.5t38 -39t56.5 -14q40 0 76 27t65.5 71.5t53 103t40 121t25 125t8.5 115.5z" />
    <glyph glyph-name="p" unicode="p" horiz-adv-x="1057" 
d="M946 995q40 -5 68 -29t46 -59t26.5 -77t8.5 -84q0 -89 -22 -179.5t-62 -174t-95 -156t-121.5 -126t-141.5 -84.5t-154 -31q-45 0 -88.5 8t-84.5 27q-8 -30 -15 -63t-13 -66t-9.5 -65.5t-3.5 -62.5q0 -23 6 -45.5t13 -46.5q-50 -25 -95 -35.5t-79 -10.5q-57 0 -83 26
t-26 77q0 20 2.5 43t7.5 48q2 10 10.5 45t21 87t27.5 116t31 131.5t31.5 133.5t28.5 122t23 97.5t14 59.5q17 78 27.5 140t10.5 122q0 23 -4 44.5t-14 41.5q55 26 102 37t87 11q106 0 106 -85q0 -25 -17 -101t-46 -188q40 64 87.5 127.5t101.5 114.5t114 82.5t126 31.5
q11 0 22.5 -1t24.5 -3zM823 691q0 54 -13 83.5t-43 29.5q-24 0 -58 -28.5t-72.5 -76t-78.5 -108.5t-76 -125t-65.5 -126.5t-47.5 -112.5q4 -20 19 -36t36 -27.5t45.5 -18t47.5 -6.5q40 0 77 22t70 60.5t61 90t48.5 110.5t33.5 122t16 125v22z" />
    <glyph glyph-name="q" unicode="q" horiz-adv-x="1041" 
d="M1120 957q-25 -40 -45 -91t-41 -125q-18 -78 -41.5 -175t-47.5 -202t-47 -213t-41 -208q-8 -43 -14 -88.5t-6 -90.5q0 -23 2.5 -46.5t6.5 -46.5q-46 -17 -84.5 -26.5t-68.5 -9.5q-36 0 -58.5 8t-36 21.5t-18.5 31.5t-5 38q0 21 3 43t8 42q15 73 28 139t26 129t26 124.5
t27 125.5q-57 -93 -114 -160.5t-111.5 -110.5t-107 -63.5t-100.5 -20.5q-57 0 -93.5 23t-57.5 60t-29 83.5t-8 94.5q0 82 20.5 171t57.5 173.5t89.5 160.5t117 133.5t139 91t155.5 33.5q53 0 103 -13.5t96 -41.5q25 26 56 37t69 11q71 0 145 -42zM398 177q23 0 56 29.5
t71 78t78.5 110.5t77 126.5t66.5 126t48 110.5q-2 28 -17 48.5t-37.5 34t-49.5 20t-53 6.5q-33 0 -68.5 -23.5t-69 -64.5t-63 -96.5t-52 -120t-35.5 -135t-13 -140.5q0 -21 2.5 -40.5t9 -35t18.5 -25t31 -9.5z" />
    <glyph glyph-name="r" unicode="r" horiz-adv-x="883" 
d="M800 260q100 105 123.5 97t-31.5 -121q-23 -47 -62 -91t-84.5 -78t-91.5 -55t-83 -21q-39 0 -70 10t-52 31.5t-30.5 54.5t-3.5 79q3 28 10 62t16 68.5t18.5 67t17.5 56.5q5 17 14.5 46t21 64.5t24 72.5t23.5 70t18.5 57.5t10.5 34.5q9 28 11 41t-16 10q-6 -1 -22 -3.5
t-38 -4.5t-48.5 -4t-53.5 -2q-10 -28 -25.5 -69t-41.5 -86q-25 -45 -55 -86.5t-61 -64.5q-35 -26 -75 -36t-78 4q36 42 60.5 81t41 79t24.5 83.5t11 94.5q-43 16 -61.5 45t-18.5 62t13.5 67t34 60.5t44.5 41.5t43 11q-1 -12 -6.5 -29.5t-5 -34.5t14.5 -32t53.5 -21.5t111 -3
t186.5 23.5q23 5 56.5 11.5t66.5 3.5t59.5 -20t35.5 -58q10 -47 2 -96.5t-24 -99.5t-36 -99.5t-34 -95.5q-24 -79 -46 -145t-26 -117q-1 -15 -1.5 -30.5t0.5 -27.5t5 -19.5t12 -6.5q16 1 41 21.5t57 46.5z" />
    <glyph glyph-name="s" unicode="s" horiz-adv-x="742" 
d="M607 918q-56 0 -82 -30t-26 -84q0 -28 12.5 -54t35.5 -53q30 -36 58.5 -71t51 -73t36.5 -80.5t14 -92.5q0 -83 -35 -155t-94 -125t-135.5 -83t-160.5 -30q-48 0 -96.5 15t-87.5 44.5t-64 71.5t-25 96q0 23 7 42t17.5 34t23.5 26t26 18q16 -43 37.5 -82t49 -69.5t62 -49.5
t76.5 -21q65 0 103.5 36.5t38.5 111.5q0 32 -13 60.5t-34 55.5t-47.5 54t-53.5 57q-35 43 -54 95t-19 106q0 89 40.5 153.5t105.5 106t145 61.5t160 20q50 0 73.5 -12t31.5 -44q0 -28 -14.5 -53.5t-56.5 -54.5q-28 27 -55 40t-52 13z" />
    <glyph glyph-name="t" unicode="t" horiz-adv-x="660" 
d="M761 901q0 -33 -12.5 -60t-33.5 -46.5t-49 -30t-59 -10.5q-28 0 -45 1t-42 1q-11 0 -21.5 -0.5t-21.5 -3.5q-14 -67 -30.5 -139.5t-35.5 -146.5q-6 -21 -11 -45.5t-9 -50.5t-6.5 -52t-2.5 -49q5 -88 72 -88q8 0 19 6t23 16t25.5 22.5t25.5 25.5q45 47 72 70.5t41 23.5
q9 0 9 -17q0 -33 -15 -71t-40 -75t-58.5 -71.5t-69.5 -60.5t-73 -41.5t-70 -15.5q-57 0 -98 16.5t-66.5 47.5t-37.5 75.5t-12 99.5q0 28 3.5 56.5t7.5 57.5q7 41 12 70.5t11.5 60t15 68.5t22.5 95q15 58 29.5 121t26.5 123t19 113.5t7 93.5q0 26 -3.5 50t-15.5 51
q58 34 106 48t93 14t67.5 -24.5t22.5 -66.5q0 4 -9 -61.5t-36 -202.5h78q42 0 84.5 3.5t90.5 10.5v-12z" />
    <glyph glyph-name="u" unicode="u" horiz-adv-x="1085" 
d="M978 1001q22 -2 42.5 -7t36.5 -16.5t25 -30t9 -46.5q0 -29 -6.5 -63.5t-17.5 -74.5q-19 -68 -38.5 -135t-35 -130t-25.5 -120.5t-10 -106.5q0 -14 0.5 -28t2.5 -25.5t6 -18.5t11 -7q13 0 31.5 11.5t39.5 29.5t42 38t39 38t31.5 29.5t18.5 11.5q11 0 11 -16q0 -33 -15 -71
t-40.5 -75.5t-59 -71.5t-70 -60.5t-74 -42t-70.5 -15.5q-77 0 -120.5 48.5t-43.5 148.5q0 38 5 71t12 71q-107 -175 -212 -265t-218 -90q-51 0 -82.5 16.5t-48.5 43t-23 60.5t-6 69q0 36 10 92t24.5 122t32 137t32 136t24.5 120t10 90q0 23 -3.5 48t-15.5 46
q51 20 98.5 29.5t82.5 9.5q32 0 52.5 -8t32.5 -22t17 -32.5t5 -39.5q0 -28 -6.5 -57.5t-12.5 -54.5q-22 -97 -43 -184t-38 -159t-27.5 -127.5t-10.5 -89.5q0 -19 7 -33.5t28 -14.5q19 0 49 22.5t65.5 63.5t75 98t77.5 126q71 129 106.5 239t35.5 185q0 14 -2.5 31t-10.5 31
q36 13 79.5 19.5t78.5 6.5z" />
    <glyph glyph-name="v" unicode="v" horiz-adv-x="932" 
d="M714 610q55 99 78.5 176.5t23.5 133.5q0 12 -3.5 28.5t-9.5 33.5t-13.5 32t-15.5 24q17 2 37 3.5t31 1.5q100 0 146 -30t46 -104q0 -60 -46.5 -166.5t-146.5 -261.5q-71 -109 -138 -200.5t-134.5 -158t-138 -103.5t-148.5 -37q-10 0 -19.5 0.5t-19.5 3.5q0 19 2 45t2 50
q0 50 -3.5 118.5t-11 147.5t-18 163t-24.5 165q-10 55 -18.5 98t-18.5 74.5t-21.5 52t-26.5 32.5q54 33 106 51t100 18q59 0 92.5 -40.5t39.5 -127.5q7 -51 11.5 -110.5t7 -122.5t3.5 -126.5t1 -121.5v-62.5t-2 -62.5q81 106 141.5 201.5t108.5 181.5z" />
    <glyph glyph-name="w" unicode="w" horiz-adv-x="1354" 
d="M876 0q-14 -4 -26 -6t-25 -3t-29 -1t-38 -1q3 33 4.5 59t2 48.5t0.5 43v43.5q0 89 -2.5 171t-4.5 170q-66 -141 -141 -260t-156 -199q-24 -24 -52 -38.5t-58.5 -22.5t-63.5 -10.5t-66 -2.5q7 47 9 108.5t2 134.5q0 55 -1 115.5t-3 121.5t-5 119t-7 107q-8 88 -27 145
t-47 98q54 31 101 46t85 15t60.5 -15t35 -45t18 -76t10.5 -109q5 -72 8 -168t3 -203v-86q79 96 131 181.5t82 160t42 138.5t12 118q0 29 -7 49q44 19 83.5 28t72.5 9q36 0 56 -22.5t29.5 -67t11.5 -110.5t2 -153q0 -80 -1 -183t-6 -220q56 75 106 162t88 174t60 168.5
t22 145.5q0 17 -3.5 39t-11 45.5t-19.5 45t-30 38.5q17 2 37.5 3.5t31.5 1.5q100 0 155.5 -31.5t55.5 -107.5q0 -28 -15 -79.5t-41 -117t-62.5 -140.5t-79.5 -150t-91 -146t-98.5 -128.5t-101 -97t-98.5 -52.5z" />
    <glyph glyph-name="x" unicode="x" horiz-adv-x="899" 
d="M223 -18q-10 -2 -19.5 -2.5t-19.5 -0.5q-33 0 -62 7t-50.5 20t-33.5 31.5t-12 41.5q0 32 18 71t57 88t100 109t147 134q-26 70 -47 132t-39.5 111t-36.5 84.5t-39 53.5q11 24 31.5 45t46 36.5t54 24t56.5 8.5q27 0 48.5 -12t37 -31.5t26.5 -45t17 -52.5q13 -54 29.5 -112
t33.5 -109q125 130 183 223.5t58 154.5q0 4 10.5 6.5t24 3.5t26 1h15.5q58 0 84.5 -18.5t26.5 -55.5q0 -36 -28 -85t-77.5 -108t-117 -126.5t-146.5 -141.5q25 -69 56.5 -130.5t64.5 -110t67 -83t64 -50.5q-48 -53 -103 -80.5t-111 -27.5q-35 0 -67 24t-63 68.5t-61.5 108
t-62.5 143.5q-43 -38 -78.5 -78.5t-61 -81t-39.5 -78.5t-14 -71q0 -21 7 -39z" />
    <glyph glyph-name="y" unicode="y" horiz-adv-x="940" 
d="M-140 -301q-2 5 -2 10.5v10.5q0 26 9.5 58.5t23.5 61.5q13 -12 41.5 -21t51.5 -9q43 0 85 16.5t81.5 46t76 69t68.5 84.5q10 14 13 36.5t3 48.5q0 23 -2 47t-5 44q-19 157 -40.5 283.5t-45 219.5t-48 150.5t-49.5 76.5q56 33 108 51t101 18q51 0 84.5 -36.5t44.5 -114.5
q10 -71 19.5 -148t18 -154.5t15.5 -153t12 -143.5q68 96 125 189.5t98.5 177t64.5 153t23 119.5q0 12 -3.5 29t-9.5 34t-13.5 31.5t-15.5 23.5q16 3 36 4t31 1q102 0 148 -30.5t46 -94.5q0 -44 -34.5 -123.5t-98 -187t-153 -238t-198.5 -274.5q-102 -135 -184.5 -223
t-151 -139t-126 -71.5t-108.5 -20.5q-60 0 -96 22t-44 66z" />
    <glyph glyph-name="z" unicode="z" horiz-adv-x="839" 
d="M997 -9q5 -17 8 -33.5t3 -33.5q0 -47 -17.5 -87t-48 -69.5t-70.5 -46t-85 -16.5q-55 0 -107.5 26.5t-104.5 62.5t-103 73.5t-103 60.5q-107 46 -221 46q-28 0 -54.5 -2.5t-53.5 -6.5q-4 16 -6.5 32t-2.5 33q0 42 16 83t45 73q42 47 97 107.5t118.5 132.5t133.5 155
t141 175q-69 -6 -118.5 -8t-80.5 -2q-92 0 -132.5 28t-40.5 67q0 15 7.5 35.5t19.5 43.5t27 46t31 44q45 -28 123.5 -41.5t188.5 -13.5q49 0 90.5 2t80 6t76 10.5t78.5 14.5q6 -23 6 -46q0 -67 -44 -120q-10 -12 -34.5 -40t-56 -64.5t-66.5 -76.5t-66 -76t-55 -63t-34 -38
q-39 -44 -79 -85t-77.5 -80t-71.5 -76t-61 -74q37 0 76.5 -11t78.5 -28.5t77 -39.5t71 -44q31 -22 66 -39t69.5 -28.5t67.5 -17.5t60 -6q41 0 74.5 13.5t63.5 42.5z" />
    <glyph glyph-name="braceleft" unicode="{" horiz-adv-x="647" 
d="M195 48q2 51 13.5 107.5t29.5 113.5q36 121 36 194q0 32 -14 61t-42 49q-33 21 -49 57.5t-9 75.5q18 -5 36.5 -4.5t35.5 5.5q57 16 96 90.5t68 210.5q10 44 21 84.5t23 81.5q20 66 49.5 115.5t65.5 82.5t78.5 51t89.5 22q90 7 141 -18.5t54 -73.5q-38 3 -74 -6t-66 -28.5
t-53 -49.5t-36 -68q-20 -55 -37 -116.5t-33 -135.5q-4 -22 -9 -41.5t-11 -39.5q-20 -51 -45.5 -87.5t-56.5 -61.5t-66.5 -41.5t-75.5 -26.5q-24 -6 -45 -15l55 -22q136 -53 136 -188q0 -26 -3.5 -56.5t-10.5 -65.5q-6 -23 -11 -46.5t-10 -45.5q-18 -86 -18 -144
q0 -67 24 -98t84 -31q16 0 32 2.5t33 7.5q-3 -29 -19.5 -51t-41.5 -36t-57.5 -21t-67.5 -7q-20 0 -42 2t-45 7q-34 10 -62 26t-48.5 41t-31.5 59t-11 79z" />
    <glyph glyph-name="bar" unicode="|" horiz-adv-x="533" 
d="M621 1366q-4 -20 -15 -71.5t-31 -133.5q-28 -115 -59.5 -245t-64.5 -265t-65.5 -270t-61.5 -260q-17 -72 -27.5 -122.5t-14.5 -79.5q-3 -14 -4.5 -28t-1.5 -31q-30 -9 -58 -9q-26 0 -56 6t-67 14q-2 7 -4.5 15.5t-2.5 19.5v9q5 21 13 57.5t20 90.5q5 20 17 69t28 116
t35 148t39 164.5t39 165t35 150t28 119t17 72.5q23 88 35 151.5t17 99.5q5 27 9 52t6 47q7 0 13 1t13 1q51 0 91 -15t78 -38z" />
    <glyph glyph-name="braceright" unicode="}" horiz-adv-x="647" 
d="M408 48q-40 -90 -104 -138t-140 -67q-24 -5 -46.5 -7t-43.5 -2q-36 0 -65 7t-48 21t-26 36t2 51q16 -5 30.5 -7.5t30.5 -2.5q59 0 97 31t67 98q13 28 25 64.5t23 79.5q3 22 7.5 45.5t9.5 46.5q9 35 19.5 65.5t22.5 56.5q28 69 82.5 115.5t133.5 72.5l68 22q-21 10 -41 15
q-35 10 -64 26.5t-49 41.5t-29 61.5t-5 87.5q3 40 13 81q17 74 27 135.5t15 116.5q4 38 -6.5 68t-32 49.5t-54 28.5t-71.5 6q26 48 87 73.5t149 18.5q81 -8 125 -58t44 -150q0 -15 -0.5 -30.5t-2.5 -32.5q-7 -41 -13 -81.5t-17 -84.5q-14 -57 -20.5 -101.5t-6.5 -80.5
q0 -50 14 -80t45 -39q29 -11 70 -1q-4 -20 -15 -39t-26 -36.5t-34 -32.5t-39 -25q-35 -20 -64 -49t-42 -61q-17 -36 -28 -84.5t-19 -109.5q-8 -57 -21 -113.5t-34 -107.5z" />
    <glyph glyph-name="asciitilde" unicode="~" horiz-adv-x="1069" 
d="M225 463q-21 0 -39.5 6.5t-32.5 20.5q-16 14 -24 32.5t-8 38.5q0 42 17.5 81.5t54 70.5t92.5 49.5t132 18.5q29 0 66 -11t76 -28t78.5 -36.5t75 -36.5t64 -28t46.5 -11q28 0 52.5 10.5t42.5 28.5t29 42t11 52q32 -2 53 -9.5t33.5 -19t17.5 -26t5 -29.5q0 -56 -21.5 -103
t-60.5 -80t-93.5 -47.5t-121.5 -5.5q-29 4 -65.5 16.5t-76 29.5t-80 36t-76 34.5t-64.5 26t-45 10.5q-27 0 -51.5 -10.5t-43.5 -28.5t-30.5 -42.5t-12.5 -51.5z" />
    <glyph glyph-name="exclamdown" unicode="&#xa1;" horiz-adv-x="625" 
d="M85 -345q0 39 8 75.5t18 72.5q46 186 80.5 321.5t57 228t33.5 146t11 74.5q0 12 -1 23.5t-5 22.5q16 2 30.5 3t28.5 1q75 0 111.5 -20t41.5 -59q0 -28 -2 -56.5t-10 -70.5q-11 -50 -23.5 -109t-25 -122t-25 -127t-23 -123.5t-17.5 -112t-10 -92.5q-3 -36 0 -71t11 -71
q-46 -17 -89 -28t-81 -11q-58 0 -88.5 24t-30.5 81zM315 857q0 14 6.5 40.5t17.5 66.5q39 26 80.5 38.5t81.5 12.5q51 0 74.5 -23t23.5 -60q0 -40 -9.5 -67.5t-9.5 -50.5v-10.5t2 -12.5q-37 -18 -73.5 -28.5t-70.5 -10.5q-60 0 -91.5 27.5t-31.5 77.5z" />
    <glyph glyph-name="cent" unicode="&#xa2;" horiz-adv-x="837" 
d="M960 892q0 -31 -13 -58t-34.5 -47t-49.5 -31.5t-59 -11.5q1 21 -5 41.5t-18.5 38t-31 29t-40.5 14.5q-35 -177 -70.5 -364.5t-68.5 -365.5q44 5 88 22.5t83 39.5t70.5 45t50.5 41q5 -12 6.5 -24.5t1.5 -26.5q0 -15 -2.5 -30t-8.5 -29q-27 -69 -109 -115t-208 -69
q-10 -46 -15 -82t-7 -62q0 -11 -1.5 -21t-1.5 -21q-11 -2 -21 -2h-19q-17 0 -35 3t-33 11q-10 7 -15.5 21t-2.5 35q2 14 10.5 44.5t13.5 64.5q-35 2 -71 8.5t-70 18.5t-64.5 30.5t-54.5 45.5q-23 26 -37.5 59t-22.5 68.5t-10 72t1 70.5q11 112 47.5 208t96.5 181
q75 103 172.5 166.5t207.5 86.5q7 35 11.5 66t6.5 59q2 12 2 23.5t2 22.5q13 0 22.5 1t18.5 1q13 0 28.5 -1.5t29 -5.5t23 -11t9.5 -18q0 -2 -1 -8t-3.5 -19.5t-7.5 -37.5t-14 -61q110 -4 166.5 -33t56.5 -83zM450 153q33 171 68 354.5t68 359.5q-92 -41 -154 -148t-80 -264
q-3 -17 -3.5 -34t-0.5 -34q0 -39 6 -76.5t18.5 -68.5t32 -54.5t45.5 -34.5z" />
    <glyph glyph-name="sterling" unicode="&#xa3;" horiz-adv-x="1120" 
d="M1027 830q-6 -37 -24.5 -65t-51 -47t-81.5 -28.5t-116 -9.5q-23 0 -42 1t-33 1q-24 -98 -51 -174t-64.5 -136.5t-89 -109t-126.5 -91.5q107 6 194.5 12.5t159.5 6.5h107q75 5 120.5 22t62.5 35q17 -5 30.5 -20t13.5 -43q0 -35 -11 -73t-31 -70t-48.5 -53t-64.5 -21
q-30 0 -83.5 5.5t-121 12t-143 12t-148.5 5.5q-40 -2 -78.5 -6.5t-72.5 -9t-61 -7.5t-44 -3q-31 0 -47.5 10t-16.5 42q0 8 1.5 22t4.5 29.5t6.5 31.5t7.5 28q2 7 17 13.5t25 11.5q49 23 86.5 47t65.5 53.5t48 67t35.5 87.5t26.5 114.5t22 148.5h-59q-43 0 -83 -5t-72 -16
q8 35 15.5 58.5t17 39t22 24t30.5 13.5q33 10 69 12.5t76 2.5q17 154 65.5 273t123.5 200t175 123t221 42q44 0 81.5 -6.5t65 -21t43 -37.5t15.5 -57q0 -14 -7 -34t-19.5 -41t-30 -42t-38.5 -37q-12 21 -24.5 41.5t-32 37t-48 27t-71.5 10.5q-72 0 -115.5 -37t-69 -101.5
t-38.5 -151.5t-25 -188h67q79 0 147.5 5.5t114.5 13.5z" />
    <glyph glyph-name="yen" unicode="&#xa5;" horiz-adv-x="1122" 
d="M1307 1384q0 -45 -26.5 -99t-69.5 -112t-96.5 -118.5t-108.5 -118t-105 -109.5t-85 -94q49 1 97.5 2.5t90 4t73.5 5.5t49 7q-10 -39 -20.5 -63.5t-23 -39.5t-28.5 -21.5t-37 -8.5q-17 -1 -49 -2t-71 -1.5t-81.5 -1.5t-80.5 -2q-22 -42 -38.5 -86.5t-29.5 -92.5q45 1 93 2
t91 3t75.5 4.5t46.5 7.5q-10 -35 -20 -57.5t-21 -36t-24.5 -19.5t-31.5 -7q-13 -1 -38 -1.5t-57.5 -1.5t-68.5 -1.5t-70 -1.5q-12 -60 -17.5 -112t-5.5 -87q0 -23 6 -50.5t15 -50.5q-39 -20 -90 -33.5t-104 -13.5t-84.5 20.5t-31.5 65.5q0 25 8 56t21.5 65t30.5 70.5
t34 71.5q-29 0 -57 -1.5t-52.5 -4t-44 -5t-29.5 -5.5q6 42 14.5 67.5t21.5 39.5t32.5 18.5t49.5 4.5q4 0 18 -0.5t32 -1t36.5 -1t29.5 -1.5q21 48 33.5 88.5t8.5 73.5v8t-1 10h-64q-81 0 -150.5 -4.5t-104.5 -13.5q8 46 17 74t24 43.5t37.5 20.5t56.5 5q15 0 36.5 -0.5
t45 -1.5t46 -2t38.5 -2q-21 117 -52 217.5t-67 177t-73 125t-68 63.5q-14 6 -24.5 11t-21.5 9q120 116 241 116q53 0 92 -26t63 -83q20 -46 36.5 -106.5t31.5 -130.5t29.5 -147t31.5 -157q59 95 102.5 163t75 116.5t53 81.5t37.5 59t28.5 49.5t25.5 52.5q14 24 18.5 52
t4.5 57q0 16 -1.5 33t-3.5 32q14 2 26.5 2h26.5q98 0 147.5 -32.5t49.5 -85.5z" />
    <glyph glyph-name="brokenbar" unicode="&#xa6;" horiz-adv-x="533" 
d="M625 1372q-7 -40 -25 -119t-46 -180q-21 -87 -36 -154t-20 -112q-2 -7 -2 -15v-16v-15q-14 -2 -27.5 -3.5t-25.5 -1.5q-41 0 -75 12.5t-66 33.5q2 4 3 7t3 7q7 44 21 108t36 152q23 89 39.5 166.5t28.5 143.5q0 5 -0.5 13.5t-3.5 17.5q12 2 22.5 3t21.5 1q45 0 81 -14
t71 -35zM411 475q-4 -37 -20.5 -106t-42.5 -163q-23 -94 -40 -169t-25 -123q-1 -12 -1 -23.5v-25.5q-14 -3 -26.5 -4t-25.5 -1q-42 0 -76 12.5t-66 33.5q11 45 25.5 111.5t37.5 161.5q24 88 39.5 165.5t29.5 145.5q0 7 -0.5 14t-3.5 16q12 3 24 3.5t24 0.5q44 0 78 -13
t69 -36z" />
    <glyph glyph-name="section" unicode="&#xa7;" horiz-adv-x="1082" 
d="M1082 1319q0 -40 -22 -75.5t-79 -78.5q-24 33 -45 60t-45 46.5t-54.5 30t-73.5 10.5q-78 0 -119 -38.5t-41 -112.5q0 -32 11.5 -56t42 -50t83.5 -59t136 -83q62 -44 101.5 -100t39.5 -134q0 -112 -65.5 -193.5t-177.5 -130.5q39 -44 53.5 -90t14.5 -99q0 -80 -38.5 -144
t-101.5 -108t-143.5 -67.5t-164.5 -23.5q-57 0 -108 7.5t-89 25t-61 45t-25 67.5q0 44 25.5 88.5t67.5 72.5q19 -33 43 -63.5t53.5 -53t65.5 -36t79 -13.5q86 0 131 40t45 117q0 38 -17.5 66.5t-54 57t-93 62.5t-134.5 83q-58 43 -91.5 96t-33.5 127q0 55 18 103t51.5 88
t80.5 72t105 56q-38 44 -51.5 85t-13.5 97q0 79 37 141t97.5 105.5t139 66.5t161.5 23q52 0 99 -7t82 -23t56 -40.5t23 -59.5zM805 616q-1 38 -25.5 71.5t-62 61t-83 49.5t-90.5 37q-59 -21 -94 -63.5t-35 -96.5q0 -38 21.5 -71.5t57.5 -61.5t84 -51t101 -39q63 26 94.5 68
t31.5 96z" />
    <glyph glyph-name="dieresis" unicode="&#xa8;" horiz-adv-x="809" 
d="M709 1238q0 27 3.5 47t8 36t8 29t3.5 25q35 18 70.5 28.5t67.5 10.5q53 0 84 -24t31 -71q0 -21 -8.5 -51.5t-23.5 -69.5q-37 -23 -75 -33.5t-73 -10.5q-18 0 -35 4t-30.5 14t-22 26t-8.5 40zM311 1238q0 27 3.5 47t8 36t8 29t3.5 25q36 18 71 28.5t67 10.5q53 0 83.5 -24
t30.5 -71q0 -42 -32 -121q-37 -23 -74 -33.5t-72 -10.5q-18 0 -35.5 4t-31 14t-22 26t-8.5 40z" />
    <glyph glyph-name="copyright" unicode="&#xa9;" horiz-adv-x="1635" 
d="M1408 955q0 -134 -38.5 -248.5t-112 -199.5t-180.5 -133t-244 -48q-107 0 -191 27.5t-143 83t-90 138.5t-31 195q0 139 40.5 254t115 197t180.5 127t237 45q106 0 191 -28t144 -83.5t90.5 -137t31.5 -189.5zM1275 942q0 167 -92 252t-263 85q-100 0 -176 -40.5
t-127.5 -108.5t-78 -158.5t-26.5 -190.5q0 -168 86.5 -256.5t251.5 -88.5q103 0 182 39t133 107.5t82 160.5t28 199zM1080 746q12 -9 17.5 -21.5t6 -27t-3 -28.5t-9.5 -24q-12 -18 -33 -38.5t-49.5 -38t-64 -29.5t-76.5 -12q-131 0 -190 68t-59 188q0 82 28 156.5t77 130.5
t115 89t142 33q80 0 123 -28.5t43 -74.5q0 -42 -28 -69q-15 -14 -38.5 -22t-51.5 -3q-5 42 -24.5 63.5t-49.5 21.5q-36 0 -65.5 -23.5t-50.5 -64t-32.5 -95.5t-11.5 -118q0 -58 26.5 -93t83.5 -35q45 0 91 26t84 69z" />
    <glyph glyph-name="ordfeminine" unicode="&#xaa;" horiz-adv-x="918" 
d="M789 1008q0 -20 10 -34t24.5 -23.5t32 -16t32.5 -11.5q-16 -57 -62.5 -92t-106.5 -35q-42 0 -66.5 12.5t-38 37t-17.5 60.5t-4 82q-76 -104 -145 -151.5t-133 -47.5q-72 0 -108 46t-36 127q0 93 37 170.5t95 134t127 89t134 34.5q32 0 62.5 -8.5t61.5 -27.5q38 34 90 34
q60 0 123 -43q-19 -26 -39 -68t-36 -90t-26.5 -95.5t-10.5 -83.5zM406 927q25 0 57.5 22.5t66 62.5t65 94.5t54.5 119.5q-10 29 -32.5 42t-48.5 13q-34 0 -68.5 -26.5t-62.5 -67.5t-45.5 -91t-17.5 -97q0 -32 7.5 -52t24.5 -20z" />
    <glyph glyph-name="guillemotleft" unicode="&#xab;" horiz-adv-x="976" 
d="M1012 883q11 -7 16.5 -23t3.5 -23q-8 -43 -37 -87t-74.5 -88.5t-105 -87t-129.5 -82.5q46 -35 85 -73t66 -79t39.5 -84t6.5 -87q-3 -26 -21 -44q-23 25 -59.5 58.5t-78.5 68.5t-86 69t-82 61q-18 12 -35 23t-30 25.5t-20.5 36t-7.5 55.5q11 10 23 17t26 14q53 21 112 53
t118 70.5t116 81t106 86.5q11 11 24 21t24 18zM295 492q46 -35 85 -73t66 -79t39.5 -84t6.5 -87q-2 -12 -7 -23.5t-13 -20.5q-24 25 -60.5 58.5t-78.5 68.5t-86 69t-83 61q-19 12 -35.5 23t-29 25.5t-20 36t-7.5 55.5q11 10 23 17t26 14q54 21 110.5 51.5t112 65t106 71.5
t92.5 73q9 9 19.5 17t18.5 13q10 -8 15.5 -22.5t5.5 -19.5q-11 -75 -91.5 -153.5t-214.5 -156.5z" />
    <glyph glyph-name="logicalnot" unicode="&#xac;" horiz-adv-x="997" 
d="M981 571q-8 -41 -19 -85.5t-23.5 -83.5t-24.5 -68t-22 -39q-19 -25 -45 -38.5t-71 -13.5h-55h-30q25 49 40 95t21 86q5 9 5.5 20.5t0.5 18.5q0 31 -14 42q-65 7 -170 12t-237 10q-97 9 -144 43q-18 12 -21 34t5 45q5 15 9.5 30.5t8.5 34.5q10 4 17 5.5t17 1.5q17 0 44 -6
q48 -2 105.5 -5t120.5 -3q96 0 177 -2.5t142 -7.5q24 -2 50 -4t48.5 -9t39 -20.5t22.5 -37.5q5 -12 5 -26.5t-2 -28.5z" />
    <glyph glyph-name="registered" unicode="&#xae;" horiz-adv-x="1613" 
d="M966 842q10 -22 27.5 -53.5t40 -62.5t47 -57t47.5 -37q-6 -14 -18 -27t-28 -23t-34.5 -16.5t-37.5 -6.5q-24 0 -44.5 12.5t-38.5 40.5q-13 18 -27.5 42.5t-28.5 50.5t-26 51.5t-19 47.5q-9 -57 -11 -100.5t-2 -63.5q0 -11 1.5 -23.5t1.5 -25.5q0 -9 -16 -16t-35 -11.5
t-35.5 -7t-17.5 -2.5q-26 0 -43 12t-15 37q14 77 24.5 152t18 138t11.5 109.5t4 66.5q0 12 -4 27t-11 30q24 10 51 19t54.5 15.5t54.5 10t50 3.5q99 0 155.5 -35t56.5 -107q0 -61 -39 -109.5t-114 -80.5zM839 905q58 3 91.5 29.5t33.5 78.5q0 31 -16.5 49t-48.5 18
q-5 0 -14.5 -0.5t-17.5 -3.5q-4 -21 -6.5 -44.5t-7.5 -46.5q-4 -20 -7 -40t-7 -40zM948 1393q106 0 190.5 -28t144 -83.5t91 -137t31.5 -189.5q0 -135 -38 -250t-111.5 -199t-180.5 -132t-245 -48q-106 0 -190 27.5t-142 83t-89 138.5t-31 195q0 139 39.5 254t113.5 197
t179.5 127t237.5 45zM848 436q102 0 181 38.5t133 106t82.5 160t28.5 201.5q0 167 -92 252t-263 85q-100 0 -176.5 -40.5t-128 -109.5t-77.5 -159t-26 -189q0 -168 86 -256.5t252 -88.5z" />
    <glyph glyph-name="macron" unicode="&#xaf;" horiz-adv-x="922" 
d="M940 1335q-1 -41 -7.5 -70t-19.5 -48.5t-32.5 -31t-45.5 -17.5q-26 -2 -51 -3.5t-51 -1.5q-38 0 -77 1t-72 2q-82 3 -136.5 10t-88.5 11q-2 8 -2 16.5v16.5v13q2 23 7 46t19 48h25t30 -1q38 0 79.5 -1.5t87.5 -3.5q37 -2 75.5 -3.5t75.5 -1.5q54 0 99.5 3.5t84.5 15.5z
" />
    <glyph glyph-name="degree" unicode="&#xb0;" horiz-adv-x="688" 
d="M562 1412q96 -9 153 -52.5t59 -122.5q0 -62 -28 -113t-73.5 -88.5t-104.5 -58t-120 -20.5q-46 0 -84.5 10.5t-66 32t-43 53.5t-15.5 76q0 63 25.5 115.5t69 89.5t102.5 57.5t126 20.5zM483 1082q33 0 58.5 11.5t43.5 30.5t27 43.5t9 51.5q0 16 -8 32.5t-22 28t-34.5 16.5
t-44.5 -2q-25 -9 -45 -26.5t-34 -38.5t-21.5 -43.5t-7.5 -42.5q0 -61 79 -61z" />
    <glyph glyph-name="plusminus" unicode="&#xb1;" horiz-adv-x="997" 
d="M994 763q-16 -72 -32 -114t-44 -56q-45 -17 -113 -24t-147 -7q-17 -64 -28 -129.5t-11 -121.5v-21.5t2 -20.5q-23 -4 -43 -6.5t-40 -2.5q-56 0 -79.5 12.5t-23.5 44.5q0 27 7 65.5t16 75.5t17.5 66.5t11.5 39.5h-42q-75 0 -139 -7.5t-113 -21.5q7 36 14.5 63.5t15.5 48
t18 34t23 21.5q13 9 40.5 15t63 9.5t76 5t80.5 1.5q16 66 27 131.5t11 123.5v18.5t-1 16.5q28 5 51 8t44 3q49 0 69.5 -15t20.5 -43q0 -34 -15.5 -98.5t-35.5 -144.5h31q82 0 150.5 7t117.5 23zM894 204q-10 -71 -30.5 -111.5t-52 -60.5t-75 -25t-98.5 -5h-72h-253
q-85 0 -147.5 -5.5t-100.5 -17.5q13 70 33 110t51.5 60t76 25t106.5 5h92h153q106 0 187.5 6.5t129.5 18.5z" />
    <glyph glyph-name="twosuperior" unicode="&#xb2;" horiz-adv-x="822" 
d="M724 798q10 0 16 -5.5t8.5 -13t3 -15.5t0.5 -13q0 -34 -4.5 -60t-17 -43.5t-35.5 -26.5t-59 -9q-35 0 -88 2.5t-110 2.5q-52 0 -97.5 -3.5t-73.5 -3.5h-2q-11 0 -21.5 1t-18.5 8v2q-8 7 -12 19t-6 24q-3 14 -3 29q0 7 1 15t7 16l4 4q75 63 150.5 130t136.5 146
q64 82 96.5 144.5t32.5 110.5q0 26 -21 45t-50 19q-40 0 -74 -18t-58 -53v-2l-3 -4q-8 -7 -17.5 -15t-23.5 -12l-12 -4l-8 13q-10 14 -18 33.5t-8 43.5q0 37 23.5 65.5t61.5 48.5t86.5 30.5t99.5 10.5q100 0 156 -46.5t56 -132.5q0 -72 -48.5 -158t-154.5 -200
q-7 -7 -25 -26t-41.5 -42.5t-48 -47.5t-43.5 -40q15 -2 28 -2h25q48 0 82.5 5t59.5 11.5t41 11.5t27 5z" />
    <glyph glyph-name="threesuperior" unicode="&#xb3;" horiz-adv-x="793" 
d="M387 591q-58 0 -95 8.5t-58 22.5t-29 30.5t-8 33.5q0 23 9 51.5t23 51.5l14 24l17 -22q25 -32 58.5 -52t75.5 -20q36 0 66 11.5t52 31.5t34.5 47t12.5 59q0 17 -5.5 34.5t-16 31t-26 22t-34.5 8.5q-32 0 -63.5 -3.5t-61.5 -11.5l-15 -3l-5 14q-6 12 -9 24.5t-3 23.5
q0 22 10.5 37t27.5 25.5t37.5 17.5t40.5 13l7 1q28 10 59 23t57 31t43 41t17 53q0 21 -6.5 34.5t-17 21t-22.5 10.5t-24 3q-42 0 -76 -21.5t-53 -59.5l-12 -25l-23 27q-14 17 -27 37t-13 39q0 30 16 54.5t46 42t72 27t94 9.5q70 0 114 -15.5t68.5 -40.5t33.5 -55t9 -59
q0 -71 -39.5 -121.5t-122.5 -97.5q50 -20 80 -62t30 -104q0 -63 -28.5 -118t-77 -96.5t-114 -65t-139.5 -23.5z" />
    <glyph glyph-name="acute" unicode="&#xb4;" horiz-adv-x="809" 
d="M401 1161q0 10 14 19q50 32 90.5 64t74 64t62.5 66t56 71q106 0 157.5 -26t51.5 -68q0 -26 -29 -56.5t-85 -56.5q-29 -16 -65.5 -32t-77.5 -30.5t-84.5 -26.5t-86.5 -20q-11 -2 -24.5 -0.5t-25.5 6t-20 11.5t-8 15z" />
    <glyph glyph-name="mu" unicode="&#xb5;" horiz-adv-x="1085" 
d="M324 -14q-12 -56 -21.5 -108t-17.5 -96q-2 -16 -2.5 -29.5t-0.5 -27.5q1 -23 8 -45t21 -36q-45 -26 -94 -42.5t-90 -16.5q-61 0 -87 28t-26 86q0 7 1 18t3 21q6 33 17 86.5t28 127.5q8 38 17 75.5t18 75.5q3 15 11 50.5t18.5 81t21.5 96t21 95.5t18 79.5t11 48.5
q11 48 21.5 94t19 87t13.5 75t5 58q0 23 -3.5 48t-15.5 48q51 20 98.5 29.5t82.5 9.5q32 0 52.5 -8t32.5 -22t17 -33t5 -41q0 -28 -6.5 -56.5t-12.5 -53.5q-22 -98 -43 -185t-38 -159t-27.5 -127t-10.5 -89q0 -20 7 -35t28 -15q19 0 49 22.5t65.5 63.5t75 98t77.5 126
q71 130 106.5 239.5t35.5 184.5q0 14 -2.5 31.5t-10.5 31.5q36 12 79.5 19.5t78.5 7.5q22 -2 42.5 -8t36.5 -17.5t25 -30t9 -46.5q0 -29 -6.5 -63.5t-17.5 -72.5q-20 -68 -39.5 -135t-33.5 -131q-16 -63 -26 -120.5t-10 -105.5q0 -28 6.5 -47.5t13.5 -33.5q11 2 22.5 10
t24.5 19q9 7 23 17.5t27.5 20.5t24 16.5t13.5 6.5q5 0 5.5 -5t0.5 -10q0 -22 -13 -53t-34.5 -63t-49 -62.5t-55.5 -51.5q-26 -21 -53 -30t-52 -9q-77 0 -120.5 49t-43.5 150q0 38 5 70.5t12 71.5q-99 -160 -194 -249.5t-197 -103.5z" />
    <glyph glyph-name="paragraph" unicode="&#xb6;" horiz-adv-x="1099" 
d="M1038 1263q-19 -75 -38.5 -162t-39.5 -177.5t-38.5 -180.5t-35 -170t-29 -147t-20.5 -111q-5 -27 -11 -63.5t-12 -76.5t-12 -80.5t-10.5 -76.5t-7.5 -64t-3 -42q0 -10 -8 -18.5t-21 -16t-29.5 -14t-33.5 -11.5q-40 -12 -91 -21q-26 -5 -51.5 1t-45.5 22
q-21 17 -33.5 38.5t-12.5 50.5q0 19 3.5 51t9.5 72.5t14 88t17 98.5q10 51 20.5 103t20.5 103q5 26 10.5 51t10.5 49q7 28 12.5 55t12.5 55q-23 -20 -39.5 -31t-36.5 -21q-19 -9 -41.5 -14t-42.5 -5q-65 0 -106 24t-64.5 63.5t-32.5 90.5t-9 105q0 115 49 215.5t138 174.5
t212.5 116.5t272.5 42.5q87 0 151.5 -10.5t107.5 -27t64.5 -37t21.5 -39.5q0 -49 -79 -113q-37 46 -114 60zM514 746q16 -3 32 11.5t32.5 42t32.5 65.5t32 83q15 45 29 92t26 91.5t21.5 84t15.5 68.5q-66 -3 -122.5 -40.5t-98 -95.5t-65 -129.5t-23.5 -141.5q0 -48 20 -85.5
t68 -45.5zM663 -63q-3 18 0 31q21 156 51.5 317.5t66.5 333.5q37 177 76 345.5t74 317.5q-8 0 -17.5 2.5t-19.5 2.5q-3 0 -11.5 1t-22.5 1q-23 -95 -47.5 -190.5t-47.5 -191.5q-22 -82 -43.5 -169t-41.5 -174.5t-37.5 -171.5t-31.5 -159t-23.5 -139t-12.5 -110
q0 -8 -1 -18.5t0.5 -20t6.5 -16t17 -6.5q14 0 31 4.5t34 9.5z" />
    <glyph glyph-name="periodcentered" unicode="&#xb7;" horiz-adv-x="561" 
d="M498 556q0 -27 -9 -61.5t-25 -72.5q-35 -20 -73.5 -30t-73.5 -10q-47 0 -72.5 19t-30.5 54v28q7 39 13.5 68.5t6.5 47.5v11.5t-2 10.5q77 40 144 40q59 0 90.5 -27t31.5 -78z" />
    <glyph glyph-name="cedilla" unicode="&#xb8;" horiz-adv-x="922" 
d="M545 -176q0 -34 -19.5 -64t-57 -52.5t-92.5 -35.5t-125 -13q-22 0 -43 1t-37 6t-26 15t-10 27t3 26t8 19q11 -3 36.5 -7t46.5 -4q30 0 58 4t49 11.5t33.5 18t12.5 23.5q0 19 -6.5 29.5t-19 17.5t-30.5 11.5t-41 10.5q-4 20 2.5 40.5t20.5 36.5q14 17 33.5 25.5t40.5 8.5
q16 0 19 -2q-4 -8 -10 -22t-6 -22q35 -6 64.5 -15t50.5 -22t33 -31t12 -41z" />
    <glyph glyph-name="onesuperior" unicode="&#xb9;" horiz-adv-x="798" 
d="M621 608q-19 8 -42 11.5t-46 1.5h-104q-16 2 -41 0t-51 -2q-42 0 -68.5 17t-29.5 48v2q0 23 6 40t17 34l5 9l13 -2q14 0 34.5 -4.5t35.5 -4.5q14 0 23 1t14 24q4 18 13.5 58t21.5 91.5t25.5 108t25.5 107.5t21 90.5t13 57.5q-33 -7 -66.5 -17.5t-53.5 -10.5
q-21 0 -33.5 14.5t-12.5 46.5q0 25 3.5 44.5t12.5 40.5l4 12h13q16 0 49 1t73 4t81 10t74 19l10 5l9 -11q34 -38 34 -73q0 -16 -6 -32q-2 -10 -12.5 -54.5t-25 -106.5t-31 -132.5t-31 -133t-25 -108.5t-12.5 -58q5 0 9.5 1t11.5 1q41 0 66 -20t25 -52q0 -13 -7 -30t-21 -42
l-9 -15l-15 9v0z" />
    <glyph glyph-name="ordmasculine" unicode="&#xba;" horiz-adv-x="918" 
d="M667 1400q53 0 97 -12t75.5 -37t48.5 -64t17 -93q0 -82 -36.5 -156t-96.5 -131q-114 -111 -282 -111q-124 0 -186.5 56t-62.5 156q0 66 19 121t51 98.5t74.5 76t90 54t96.5 32t95 10.5zM526 901q52 0 86 28t53.5 71t27 94t7.5 97q0 109 -84 109q-37 0 -67 -19.5
t-52.5 -54t-36 -82.5t-17.5 -105q0 -62 19 -100t64 -38z" />
    <glyph glyph-name="guillemotright" unicode="&#xbb;" horiz-adv-x="976" 
d="M94 127q-11 8 -16.5 23.5t-3.5 23.5q8 42 37 86.5t74.5 88.5t105 86.5t129.5 81.5q-46 35 -85 73.5t-66 79.5t-39.5 84t-6.5 87q2 12 7 24t13 20q24 -25 60.5 -58.5t78.5 -69t85.5 -69.5t81.5 -60q19 -12 36 -22.5t30 -25t20.5 -36t7.5 -55.5q-11 -11 -23.5 -18
t-26.5 -14q-53 -21 -111.5 -53t-117.5 -70.5t-116 -81.5t-106 -86q-11 -11 -24 -20.5t-24 -18.5zM811 517q-46 35 -85 73.5t-66 79.5t-39.5 84t-6.5 87q2 12 7 24t13 20q24 -25 60.5 -58.5t78.5 -69t86 -69.5t83 -60q19 -12 35.5 -22.5t29 -25t20 -36t7.5 -55.5
q-11 -11 -23 -18t-26 -14q-54 -21 -110.5 -51t-112 -65t-106 -72.5t-92.5 -73.5q-10 -8 -20 -15.5l-18 -13.5q-11 8 -16 22.5t-5 19.5q11 75 91 153.5t215 155.5z" />
    <glyph glyph-name="onequarter" unicode="&#xbc;" horiz-adv-x="1624" 
d="M1506 371q14 1 24 -3.5t16 -11t9 -15.5t3 -17q0 -9 -5 -23t-12.5 -28.5t-16.5 -28t-18 -23.5l-8 -9l-10 4q-35 10 -74 13l-2 -8q-11 -51 -16.5 -83.5t-5.5 -52.5q0 -11 1.5 -21.5t7.5 -21.5l8 -16l-17 -8q-15 -7 -43.5 -16t-57.5 -9q-78 0 -78 68q0 14 3 34t7.5 42.5
t10 46.5t10.5 46q-39 0 -76.5 -2t-70.5 -4t-58.5 -4t-39.5 -2q-51 0 -51 79q0 21 13.5 50t35.5 61t48.5 65t52.5 62t48.5 52.5t35.5 37.5q58 61 123 119.5t139 101.5l9 2q42 0 65 -16.5t23 -36.5q0 -19 -6 -49.5t-10 -54.5v-2q-7 -31 -16.5 -69l-20 -80l-21.5 -86t-21 -87
q13 0 22 0.5t15.5 1.5t12 1.5t12.5 0.5zM1279 363q8 36 18.5 74.5t21 76.5t20.5 73t17 65q-38 -30 -80 -67t-81.5 -76t-74.5 -78.5t-60 -76.5q19 1 44.5 2t54.5 2t60 2t60 3zM490 608q-32 13 -73 13h-16h-102h-16q-14 0 -35 -1t-42 -1q-40 0 -66.5 17t-28.5 48v2q0 23 4 40
t15 34l7 9l12 -2q10 0 22.5 -1.5t24.5 -3t22.5 -3t15.5 -1.5q8 0 14 4t10 21q4 18 13 58t21 91.5t25 108t25 107.5t21 90.5t13 57.5q-16 -3 -33 -8t-32.5 -9.5t-29.5 -7.5t-23 -3q-21 0 -33.5 14.5t-12.5 46.5q0 25 2.5 44.5t12.5 40.5l5 12h13q15 0 47.5 1t72.5 4t82 10
t75 19l9 5l11 -11q15 -20 24 -37.5t9 -35.5q0 -17 -7 -32q-2 -10 -12 -54.5t-24.5 -106.5t-31 -132.5t-31.5 -133t-25.5 -108.5t-12.5 -58q5 0 10.5 1t10.5 1q40 0 65 -20t25 -52q0 -13 -6 -30t-20 -42l-11 -15zM1563 1423q-39 -28 -95.5 -86t-125 -139t-147.5 -181.5
t-163 -211.5q-85 -113 -161.5 -217.5t-140 -196.5t-113 -168t-81.5 -131q-22 -39 -40.5 -68.5t-43.5 -47.5q-53 10 -86.5 26.5t-45.5 39.5q10 41 76.5 142t180 258.5t270 368t347.5 470.5q31 38 58.5 66.5t55.5 48t57.5 29.5t64.5 10q36 0 69.5 -2.5t63.5 -9.5z" />
    <glyph glyph-name="onehalf" unicode="&#xbd;" horiz-adv-x="1613" 
d="M1565 1423q-39 -28 -95.5 -86t-125.5 -139t-147.5 -181.5t-162.5 -211.5q-86 -113 -162.5 -217.5t-140.5 -196.5t-113.5 -168t-81.5 -131q-22 -39 -40.5 -68.5t-41.5 -47.5q-109 20 -134 66q6 22 35.5 72.5t78.5 124t115.5 168t147.5 205.5q4 6 26.5 36.5t57 76.5t77 103
t87 117t87.5 117.5t77.5 104t58 77t28.5 37.5q30 38 57.5 66.5t55 48t57 29.5t64.5 10q36 0 69.5 -2.5t65.5 -9.5zM492 608q-20 8 -42.5 11.5t-45.5 1.5h-103q-17 2 -42.5 0t-50.5 -2q-42 0 -68.5 17t-28.5 48v2q0 23 5 40t16 34l7 9l12 -2q14 0 34.5 -4.5t35.5 -4.5
q7 0 12.5 -0.5t10 1.5t8 7t6.5 17q4 18 13.5 58t21.5 91.5t25.5 108t25.5 107.5t21 90.5t13 57.5q-33 -7 -67 -17.5t-53 -10.5q-21 0 -33.5 14.5t-12.5 46.5q0 25 3.5 44.5t13.5 40.5l3 12h13q16 0 49 1t72.5 4t81 10t74.5 19l11 5l9 -11q33 -39 33 -73q0 -14 -5 -32
q-2 -8 -8 -35t-15.5 -67.5t-21 -90t-23.5 -101t-24 -101.5t-21.5 -91t-16.5 -69.5t-9 -37.5q5 0 10.5 1t12.5 1q40 0 65 -20t25 -52q0 -23 -28 -72l-9 -15zM1478 186q10 0 16 -5.5t8.5 -13t3 -15.5t0.5 -13q0 -34 -4.5 -60t-17 -43.5t-35 -26.5t-59.5 -9q-35 0 -88 2.5
t-110 2.5q-53 0 -98 -3.5t-73 -3.5h-1q-12 0 -22.5 1t-19.5 8v2q-7 7 -11 19t-6 24q-3 14 -3 29q0 7 1 15t7 16l3 4q75 63 151 130t137 146q64 82 96.5 144.5t32.5 110.5q0 26 -21.5 45.5t-50.5 19.5q-38 0 -72.5 -18.5t-58.5 -53.5v-2l-3 -4q-9 -7 -18 -15t-23 -12l-13 -4
l-7 13q-10 15 -18 34t-8 43q0 37 23.5 65.5t61.5 48.5t86.5 30.5t99.5 10.5q100 0 156 -46.5t56 -132.5q0 -72 -48.5 -158t-154.5 -200q-7 -7 -25.5 -26t-41.5 -42.5t-47.5 -47.5t-43.5 -40q15 -2 28 -2h25q48 0 82.5 5t59 11.5t41 11.5t27.5 5z" />
    <glyph glyph-name="threequarters" unicode="&#xbe;" horiz-adv-x="1631" 
d="M1506 371q14 1 24 -3.5t16 -11t9 -15.5t3 -17q0 -9 -5 -23t-12.5 -28.5t-16.5 -28t-18 -23.5l-8 -9l-10 4q-35 10 -74 13l-2 -8q-11 -51 -16.5 -83.5t-5.5 -52.5q0 -11 1.5 -21.5t7.5 -21.5l8 -16l-17 -8q-15 -7 -43.5 -16t-57.5 -9q-78 0 -78 68q0 14 3 34t7.5 42.5
t10 46.5t10.5 46q-39 0 -76.5 -2t-70.5 -4t-58.5 -4t-39.5 -2q-51 0 -51 79q0 21 13.5 50t35.5 61t48.5 65t52.5 62t48.5 52.5t35.5 37.5q58 61 123 119.5t139 101.5l9 2q42 0 65 -16.5t23 -36.5q0 -19 -6 -49.5t-10 -54.5v-2q-7 -31 -16.5 -69l-20 -80l-21.5 -86t-21 -87
q13 0 22 0.5t15.5 1.5t12 1.5t12.5 0.5zM1279 363q8 36 18.5 74.5t21 76.5t20.5 73t17 65q-38 -30 -80 -67t-81.5 -76t-74.5 -78.5t-60 -76.5q19 1 44.5 2t54.5 2t60 2t60 3zM1563 1423q-39 -28 -95.5 -86t-125 -139t-147.5 -181.5t-163 -211.5q-85 -113 -161.5 -217.5
t-140 -196.5t-113 -168t-81.5 -131q-22 -39 -40.5 -68.5t-43.5 -47.5q-53 10 -86.5 26.5t-45.5 39.5q10 41 76.5 142t180 258.5t270 368t347.5 470.5q31 38 58.5 66.5t55.5 48t57.5 29.5t64.5 10q36 0 69.5 -2.5t63.5 -9.5zM295 591q-58 0 -95 8.5t-58 22.5t-29 30.5
t-8 33.5q0 23 9 51.5t23 51.5l14 24l16 -22q26 -32 59.5 -52t75.5 -20q35 0 65 11.5t52 31.5t34.5 47t12.5 59q0 17 -5.5 34.5t-16 31t-25.5 22t-34 8.5q-32 0 -63 -3.5t-62 -11.5l-15 -3l-6 14q-5 12 -7.5 24.5t-2.5 23.5q0 22 10.5 37t27.5 25.5t37.5 17.5t40.5 13l5 1
q28 10 59.5 23t57.5 31t43 41t17 53q0 21 -6.5 34.5t-16.5 21t-22.5 10.5t-24.5 3q-42 0 -76.5 -21.5t-52.5 -59.5l-13 -25l-22 27q-14 17 -27 37t-13 39q0 30 16 54.5t46 42t72 27t94 9.5q70 0 113.5 -15.5t68.5 -40.5t34 -55t9 -59q0 -71 -39.5 -121.5t-122.5 -97.5
q50 -20 80 -62t30 -104q0 -63 -28.5 -118t-77 -96.5t-114 -65t-139.5 -23.5z" />
    <glyph glyph-name="questiondown" unicode="&#xbf;" horiz-adv-x="934" 
d="M411 -463q-80 0 -145.5 17.5t-112 54.5t-72.5 95t-26 139q0 80 31.5 146.5t87.5 124.5q36 35 79.5 68t86.5 65t83.5 63t72 62t50 62.5t18.5 64.5q0 10 -2.5 23.5t-6 27.5t-8.5 28t-11 25q48 32 89.5 45t76.5 13q27 0 47.5 -13.5t35 -33t21.5 -42t7 -39.5q0 -48 -20 -91
t-56 -75q-22 -19 -61.5 -46.5t-86 -63t-94 -78t-86.5 -92t-64 -105.5t-25 -117q0 -41 12.5 -71.5t35 -50.5t53.5 -30t68 -10q34 0 65 11.5t57.5 31.5t46 47t31.5 59q8 12 19 21.5t27 13.5q36 -26 58.5 -56t22.5 -65q0 -55 -37.5 -97.5t-96 -72t-130.5 -44.5t-141 -15z
M700 765q-57 0 -87.5 26.5t-30.5 75.5q0 12 6 37t17 63q37 26 77 38t79 12q47 0 69.5 -22t22.5 -57q0 -39 -8 -65.5t-8 -46.5v-11.5t2 -12.5q-36 -17 -71.5 -27t-67.5 -10z" />
    <glyph glyph-name="Agrave" unicode="&#xc0;" 
d="M1003 1561q0 -8 -8.5 -14.5t-20.5 -11t-26 -6t-25 0.5q-84 16 -158.5 42.5t-130.5 57t-89 62.5t-33 59q0 18 18.5 38t49 36t69.5 23.5t81 1.5q18 -26 35 -52t35.5 -50.5t40 -49t49.5 -47.5q15 -12 35 -25t37 -26t29 -23t12 -16zM229 5q-42 -14 -84.5 -22.5t-87.5 -8.5
q-94 0 -94 65q0 20 7 43t23 53q50 92 108 193t120.5 208t128 217t131.5 220q54 92 115.5 193.5t124.5 215.5q50 38 108.5 54t121.5 9q77 -9 83 -131v-70t2 -83q0 -47 2.5 -87t2.5 -75q1 -16 3.5 -53t5 -84.5t5.5 -99.5t5.5 -99t4 -83t2.5 -51q6 -88 15.5 -166t23.5 -142
q14 -65 34 -111t52 -75q-50 -35 -107.5 -50.5t-120.5 -10.5q-49 4 -80 46t-43 135q-14 76 -18.5 150.5t-11.5 151.5q-21 -17 -42.5 -21.5t-42.5 -4.5q-76 -3 -150 -4t-149 -1q-37 -20 -54.5 -39.5t-31.5 -45.5q-20 -28 -40.5 -70.5t-36.5 -77.5q-19 -44 -32.5 -92t-2.5 -96z
M760 582q14 0 24 2t21 4q0 38 -1.5 87t-3 103t-4 110.5t-5.5 109.5t-6 100.5t-6 83.5q-32 -59 -69 -127.5t-78 -144.5t-85 -158.5t-90 -169.5h303z" />
    <glyph glyph-name="Aacute" unicode="&#xc1;" 
d="M229 5q-42 -14 -84.5 -22.5t-87.5 -8.5q-94 0 -94 65q0 20 7 43t23 53q50 92 108 193t120.5 208t128 217t131.5 220q54 92 115.5 193.5t124.5 215.5q50 38 108.5 54t121.5 9q77 -9 83 -131v-70t2 -83q0 -47 2.5 -87t2.5 -75q1 -16 3.5 -53t5 -84.5t5.5 -99.5t5.5 -99
t4 -83t2.5 -51q6 -88 15.5 -166t23.5 -142q14 -65 34 -111t52 -75q-50 -35 -107.5 -50.5t-120.5 -10.5q-49 4 -80 46t-43 135q-14 76 -18.5 150.5t-11.5 151.5q-21 -17 -42.5 -21.5t-42.5 -4.5q-76 -3 -150 -4t-149 -1q-37 -20 -54.5 -39.5t-31.5 -45.5q-20 -28 -40.5 -70.5
t-36.5 -77.5q-19 -44 -32.5 -92t-2.5 -96zM760 582q14 0 24 2t21 4q0 38 -1.5 87t-3 103t-4 110.5t-5.5 109.5t-6 100.5t-6 83.5q-32 -59 -69 -127.5t-78 -144.5t-85 -158.5t-90 -169.5h303zM735 1560q0 9 13 18q51 32 91 64t74 64t62.5 66t56.5 71q106 0 157 -26t51 -67
q0 -27 -29 -57t-85 -56q-29 -16 -65 -32t-77 -30.5t-84.5 -27t-86.5 -19.5q-11 -2 -24.5 -0.5t-25.5 6t-20 11t-8 15.5z" />
    <glyph glyph-name=".notdef.112" unicode="&#xc2;" 
d="M229 5q-42 -14 -84.5 -22.5t-87.5 -8.5q-94 0 -94 65q0 20 7 43t23 53q50 92 108 193t120.5 208t128 217t131.5 220q54 92 115.5 193.5t124.5 215.5q50 38 108.5 54t121.5 9q77 -9 83 -131v-70t2 -83q0 -47 2.5 -87t2.5 -75q1 -16 3.5 -53t5 -84.5t5.5 -99.5t5.5 -99
t4 -83t2.5 -51q6 -88 15.5 -166t23.5 -142q14 -65 34 -111t52 -75q-50 -35 -107.5 -50.5t-120.5 -10.5q-49 4 -80 46t-43 135q-14 76 -18.5 150.5t-11.5 151.5q-21 -17 -42.5 -21.5t-42.5 -4.5q-76 -3 -150 -4t-149 -1q-37 -20 -54.5 -39.5t-31.5 -45.5q-20 -28 -40.5 -70.5
t-36.5 -77.5q-19 -44 -32.5 -92t-2.5 -96zM760 582q14 0 24 2t21 4q0 38 -1.5 87t-3 103t-4 110.5t-5.5 109.5t-6 100.5t-6 83.5q-32 -59 -69 -127.5t-78 -144.5t-85 -158.5t-90 -169.5h303zM1209 1564q-13 -16 -28 -24.5t-28.5 -12.5t-23 -4.5t-12.5 -0.5q-15 0 -38.5 11
t-51.5 30.5t-58 46t-59 58.5q-43 -32 -87 -59t-83 -46.5t-71.5 -30t-53.5 -10.5q-18 0 -36 6t-18 22q23 20 48 41q21 18 47 40.5t51 43.5q43 38 83.5 70t76 54.5t64 35t49.5 12.5q12 0 24 -2.5t20 -8.5q10 -29 30 -65t44.5 -73t53 -72t57.5 -62z" />
    <glyph glyph-name=".notdef.110" unicode="&#xc3;" 
d="M229 5q-42 -14 -84.5 -22.5t-87.5 -8.5q-94 0 -94 65q0 20 7 43t23 53q50 92 108 193t120.5 208t128 217t131.5 220q54 92 115.5 193.5t124.5 215.5q50 38 108.5 54t121.5 9q77 -9 83 -131v-70t2 -83q0 -47 2.5 -87t2.5 -75q1 -16 3.5 -53t5 -84.5t5.5 -99.5t5.5 -99
t4 -83t2.5 -51q6 -88 15.5 -166t23.5 -142q14 -65 34 -111t52 -75q-50 -35 -107.5 -50.5t-120.5 -10.5q-49 4 -80 46t-43 135q-14 76 -18.5 150.5t-11.5 151.5q-21 -17 -42.5 -21.5t-42.5 -4.5q-76 -3 -150 -4t-149 -1q-37 -20 -54.5 -39.5t-31.5 -45.5q-20 -28 -40.5 -70.5
t-36.5 -77.5q-19 -44 -32.5 -92t-2.5 -96zM760 582q14 0 24 2t21 4q0 38 -1.5 87t-3 103t-4 110.5t-5.5 109.5t-6 100.5t-6 83.5q-32 -59 -69 -127.5t-78 -144.5t-85 -158.5t-90 -169.5h303zM1254 1712q-5 -42 -22 -79t-40 -64q-25 -29 -54.5 -44.5t-64.5 -15.5t-75 17.5
t-89 45.5q-43 25 -74 39.5t-52 14.5q-7 0 -12 -2q-19 -5 -33.5 -27t-23.5 -59l-8 -15q-1 -1 -1 -4q0 -1 -2 -7v1q-4 -11 -16 -11q-8 0 -17 5t-16 9q-14 12 -18 18.5t-4 18.5q0 11 1.5 20l3.5 21q15 79 57 128q26 28 54 39.5t60 11.5q34 2 77 -17.5t89 -44.5q38 -20 74 -35.5
t57 -15.5q1 0 9 2q18 4 33.5 30.5t23.5 58.5q0 1 0.5 2t0.5 3q2 3 3 9t3 12q8 8 17 8q6 0 16 -5v1q25 -12 34 -27.5t9 -39.5v-2z" />
    <glyph glyph-name=".notdef.124" unicode="&#xc8;" horiz-adv-x="1064" 
d="M383 1397q117 11 233.5 16.5t234.5 5.5q56 0 106 3.5t88 3.5q28 0 48 -1.5t34.5 -5.5t25.5 -10t20 -16q-5 -33 -17 -67t-30.5 -62t-43.5 -45.5t-55 -17.5q-9 0 -20.5 7t-29.5 16t-43.5 16t-61.5 7h-68q-39 0 -74.5 2.5t-64.5 2.5h-81q13 -14 18 -28t5 -28
q0 -7 -0.5 -14.5t-3.5 -15.5q-17 -78 -36.5 -167t-42.5 -186h108q90 0 174 8.5t152 19.5q0 -11 -1 -21.5t-4 -23.5q-15 -55 -42.5 -86.5t-66 -47t-86.5 -19t-104 -3.5h-110h-55q-10 -30 -21.5 -72.5t-21.5 -88.5t-17 -92t-7 -83q0 -56 21 -84.5t52 -40t66.5 -12t64.5 -0.5
q70 0 131.5 12.5t110.5 27.5t84 27.5t52 12.5q0 -87 -33 -138.5t-93.5 -78.5t-145 -35t-187.5 -8q-65 0 -128.5 1t-126.5 1q-51 0 -82.5 12t-48 33.5t-22 52t-5.5 68.5q0 27 3.5 58.5t9.5 64.5t13.5 66t15.5 64q34 131 64.5 246t53 212t36 175.5t13.5 136.5v20.5t-0.5 19
t-2.5 13.5t-6 4q-18 -5 -34.5 -5.5t-24.5 -0.5q-9 3 -6 32q0 26 11 51q12 25 22.5 40.5t22 24.5t25.5 13.5t35 6.5zM876 1561q0 -8 -8.5 -14.5t-20.5 -11t-26 -6t-25 0.5q-84 16 -158.5 42.5t-130.5 57t-89 62.5t-33 59q0 18 18.5 38t49 36t69.5 23.5t81 1.5q18 -26 35 -52
t35.5 -50.5t40 -49t49.5 -47.5q15 -12 35 -25t37 -26t29 -23t12 -16z" />
    <glyph glyph-name=".notdef.125" unicode="&#xc9;" horiz-adv-x="1064" 
d="M383 1397q117 11 233.5 16.5t234.5 5.5q56 0 106 3.5t88 3.5q28 0 48 -1.5t34.5 -5.5t25.5 -10t20 -16q-5 -33 -17 -67t-30.5 -62t-43.5 -45.5t-55 -17.5q-9 0 -20.5 7t-29.5 16t-43.5 16t-61.5 7h-68q-39 0 -74.5 2.5t-64.5 2.5h-81q13 -14 18 -28t5 -28
q0 -7 -0.5 -14.5t-3.5 -15.5q-17 -78 -36.5 -167t-42.5 -186h108q90 0 174 8.5t152 19.5q0 -11 -1 -21.5t-4 -23.5q-15 -55 -42.5 -86.5t-66 -47t-86.5 -19t-104 -3.5h-110h-55q-10 -30 -21.5 -72.5t-21.5 -88.5t-17 -92t-7 -83q0 -56 21 -84.5t52 -40t66.5 -12t64.5 -0.5
q70 0 131.5 12.5t110.5 27.5t84 27.5t52 12.5q0 -87 -33 -138.5t-93.5 -78.5t-145 -35t-187.5 -8q-65 0 -128.5 1t-126.5 1q-51 0 -82.5 12t-48 33.5t-22 52t-5.5 68.5q0 27 3.5 58.5t9.5 64.5t13.5 66t15.5 64q34 131 64.5 246t53 212t36 175.5t13.5 136.5v20.5t-0.5 19
t-2.5 13.5t-6 4q-18 -5 -34.5 -5.5t-24.5 -0.5q-9 3 -6 32q0 26 11 51q12 25 22.5 40.5t22 24.5t25.5 13.5t35 6.5zM580 1561q0 11 13 18q51 33 91 65t74 64.5t63 66.5t56 70q106 0 157 -26t51 -68q0 -26 -29 -56t-85 -56q-29 -16 -65 -32t-77 -30.5t-84.5 -27t-86.5 -19.5
q-11 -2 -24.5 -0.5t-25.5 6t-20 11t-8 14.5z" />
    <glyph glyph-name=".notdef.129" unicode="&#xca;" horiz-adv-x="1064" 
d="M383 1397q117 11 233.5 16.5t234.5 5.5q56 0 106 3.5t88 3.5q28 0 48 -1.5t34.5 -5.5t25.5 -10t20 -16q-5 -33 -17 -67t-30.5 -62t-43.5 -45.5t-55 -17.5q-9 0 -20.5 7t-29.5 16t-43.5 16t-61.5 7h-68q-39 0 -74.5 2.5t-64.5 2.5h-81q13 -14 18 -28t5 -28
q0 -7 -0.5 -14.5t-3.5 -15.5q-17 -78 -36.5 -167t-42.5 -186h108q90 0 174 8.5t152 19.5q0 -11 -1 -21.5t-4 -23.5q-15 -55 -42.5 -86.5t-66 -47t-86.5 -19t-104 -3.5h-110h-55q-10 -30 -21.5 -72.5t-21.5 -88.5t-17 -92t-7 -83q0 -56 21 -84.5t52 -40t66.5 -12t64.5 -0.5
q70 0 131.5 12.5t110.5 27.5t84 27.5t52 12.5q0 -87 -33 -138.5t-93.5 -78.5t-145 -35t-187.5 -8q-65 0 -128.5 1t-126.5 1q-51 0 -82.5 12t-48 33.5t-22 52t-5.5 68.5q0 27 3.5 58.5t9.5 64.5t13.5 66t15.5 64q34 131 64.5 246t53 212t36 175.5t13.5 136.5v20.5t-0.5 19
t-2.5 13.5t-6 4q-18 -5 -34.5 -5.5t-24.5 -0.5q-9 3 -6 32q0 26 11 51q12 25 22.5 40.5t22 24.5t25.5 13.5t35 6.5zM1067 1564q-13 -16 -28 -24.5t-28.5 -12.5t-23 -4.5t-12.5 -0.5q-15 0 -38.5 11t-51.5 30.5t-58 46t-59 58.5q-43 -32 -87 -59t-83 -46.5t-71.5 -30
t-53.5 -10.5q-18 0 -36 6t-18 22q23 20 48 41q21 18 47 40.5t51 43.5q43 38 83.5 70t76 54.5t64 35t49.5 12.5q12 0 24 -2.5t20 -8.5q10 -29 30 -65t44.5 -73t53 -72t57.5 -62z" />
    <glyph glyph-name=".notdef.105" unicode="&#xcc;" horiz-adv-x="695" 
d="M216 267q20 80 42 172t44 186.5t43 187t38 173.5q14 64 22.5 119.5t11.5 103.5q0 14 0.5 29.5t-3 29.5t-12.5 26t-28 20q-13 3 -19 19q-4 14 -3 17t9 8q28 17 59 30t62 22t60.5 13.5t53.5 4.5q26 0 53 -8t44 -29q18 -20 20.5 -50t-1.5 -54q-54 -231 -109.5 -458.5
t-101.5 -459.5q-11 -56 -19.5 -104t-8.5 -86q0 -37 11.5 -70.5t31.5 -64.5q0 -10 -13 -19t-33.5 -17t-46 -15t-50.5 -11.5t-46.5 -7t-33.5 -2.5q-61 0 -83 31t-22 87q0 37 8.5 84t19.5 93zM758 1561q0 -8 -8.5 -14.5t-20.5 -11t-26 -6t-24 0.5q-84 16 -159 42.5t-131 57
t-89 62.5t-33 59q0 18 18.5 38t49 36t69.5 23.5t81 1.5q18 -26 35 -52t35.5 -50.5t40 -49t49.5 -47.5q15 -12 35 -25t37 -26t29 -23t12 -16z" />
    <glyph glyph-name=".notdef.104" unicode="&#xcd;" horiz-adv-x="695" 
d="M459 1560q0 9 13 18q51 32 91 64t74 64t62.5 66t56.5 71q105 0 156.5 -26t51.5 -67q0 -27 -29.5 -57t-84.5 -56q-29 -16 -65 -32t-77 -30.5t-85 -27t-87 -19.5q-11 -2 -24.5 -0.5t-25 6t-19.5 11t-8 15.5zM216 267q20 80 42 172t44 186.5t43 187t38 173.5
q14 64 22.5 119.5t11.5 103.5q0 14 0.5 29.5t-3 29.5t-12.5 26t-28 20q-13 3 -19 19q-4 14 -3 17t9 8q28 17 59 30t62 22t60.5 13.5t53.5 4.5q26 0 53 -8t44 -29q18 -20 20.5 -50t-1.5 -54q-54 -231 -109.5 -458.5t-101.5 -459.5q-11 -56 -19.5 -104t-8.5 -86
q0 -37 11.5 -70.5t31.5 -64.5q0 -10 -13 -19t-33.5 -17t-46 -15t-50.5 -11.5t-46.5 -7t-33.5 -2.5q-61 0 -83 31t-22 87q0 37 8.5 84t19.5 93z" />
    <glyph glyph-name=".notdef.099" unicode="&#xd2;" horiz-adv-x="1284" 
d="M929 1449q102 0 179 -31.5t129 -92t78.5 -148.5t26.5 -201q0 -117 -27.5 -238t-78.5 -234.5t-123 -213t-161 -174t-192.5 -117.5t-217.5 -43q-203 0 -304 122t-101 349q0 121 26.5 243.5t76 236t120.5 212.5t159 172.5t191.5 115.5t218.5 42zM626 111q72 11 132.5 61
t109.5 124t86 165.5t62 185.5t37.5 183.5t12.5 159.5q0 66 -11.5 121.5t-36.5 96t-64 63.5t-94 23q-57 0 -111.5 -39t-103.5 -104.5t-89.5 -151t-70.5 -178.5t-46.5 -188t-16.5 -178q0 -78 11 -144.5t35 -114t63 -71t95 -14.5zM1095 1561q0 -8 -8.5 -14.5t-20.5 -11t-26 -6
t-25 0.5q-83 16 -157.5 42.5t-130.5 57t-89 62.5t-33 59q0 18 18.5 38t49 36t69.5 23.5t80 1.5q18 -26 35 -52t35.5 -50.5t40.5 -49t50 -47.5q15 -12 34.5 -25t36.5 -26t29 -23t12 -16z" />
    <glyph glyph-name=".notdef.098" unicode="&#xd3;" horiz-adv-x="1284" 
d="M823 1560q0 9 14 18q50 32 90.5 64t74 64t62.5 66t56 71q106 0 157.5 -26t51.5 -67q0 -27 -29 -57t-85 -56q-29 -16 -65.5 -32t-77.5 -30.5t-84.5 -27t-86.5 -19.5q-11 -2 -24.5 -0.5t-25.5 6t-20 11t-8 15.5zM929 1449q102 0 179 -31.5t129 -92t78.5 -148.5t26.5 -201
q0 -117 -27.5 -238t-78.5 -234.5t-123 -213t-161 -174t-192.5 -117.5t-217.5 -43q-203 0 -304 122t-101 349q0 121 26.5 243.5t76 236t120.5 212.5t159 172.5t191.5 115.5t218.5 42zM626 111q72 11 132.5 61t109.5 124t86 165.5t62 185.5t37.5 183.5t12.5 159.5
q0 66 -11.5 121.5t-36.5 96t-64 63.5t-94 23q-57 0 -111.5 -39t-103.5 -104.5t-89.5 -151t-70.5 -178.5t-46.5 -188t-16.5 -178q0 -78 11 -144.5t35 -114t63 -71t95 -14.5z" />
    <glyph glyph-name=".notdef.094" unicode="&#xd4;" horiz-adv-x="1284" 
d="M929 1449q102 0 179 -31.5t129 -92t78.5 -148.5t26.5 -201q0 -117 -27.5 -238t-78.5 -234.5t-123 -213t-161 -174t-192.5 -117.5t-217.5 -43q-203 0 -304 122t-101 349q0 121 26.5 243.5t76 236t120.5 212.5t159 172.5t191.5 115.5t218.5 42zM626 111q72 11 132.5 61
t109.5 124t86 165.5t62 185.5t37.5 183.5t12.5 159.5q0 66 -11.5 121.5t-36.5 96t-64 63.5t-94 23q-57 0 -111.5 -39t-103.5 -104.5t-89.5 -151t-70.5 -178.5t-46.5 -188t-16.5 -178q0 -78 11 -144.5t35 -114t63 -71t95 -14.5zM1280 1564q-13 -16 -28 -24.5t-28.5 -12.5
t-23 -4.5t-12.5 -0.5q-15 0 -38.5 11t-51.5 30.5t-58 46t-59 58.5q-43 -32 -87 -59t-83 -46.5t-71.5 -30t-53.5 -10.5q-18 0 -36 6t-18 22q23 20 48 41q21 18 47 40.5t51 43.5q43 38 83.5 70t76 54.5t64 35t49.5 12.5q12 0 24 -2.5t20 -8.5q10 -29 30 -65t44.5 -73t53 -72
t57.5 -62z" />
    <glyph glyph-name=".notdef.096" unicode="&#xd5;" horiz-adv-x="1284" 
d="M929 1449q102 0 179 -31.5t129 -92t78.5 -148.5t26.5 -201q0 -117 -27.5 -238t-78.5 -234.5t-123 -213t-161 -174t-192.5 -117.5t-217.5 -43q-203 0 -304 122t-101 349q0 121 26.5 243.5t76 236t120.5 212.5t159 172.5t191.5 115.5t218.5 42zM626 111q72 11 132.5 61
t109.5 124t86 165.5t62 185.5t37.5 183.5t12.5 159.5q0 66 -11.5 121.5t-36.5 96t-64 63.5t-94 23q-57 0 -111.5 -39t-103.5 -104.5t-89.5 -151t-70.5 -178.5t-46.5 -188t-16.5 -178q0 -78 11 -144.5t35 -114t63 -71t95 -14.5zM1256 1712q-5 -42 -22 -79t-40 -64
q-25 -29 -54.5 -44.5t-64.5 -15.5t-75 17.5t-89 45.5q-43 25 -74 39.5t-52 14.5q-7 0 -12 -2q-19 -5 -33.5 -27t-23.5 -59l-8 -15q-1 -1 -1 -4q0 -1 -2 -7v1q-4 -11 -16 -11q-8 0 -17 5t-16 9q-14 12 -18 18.5t-4 18.5q0 11 1.5 20l3.5 21q15 79 57 128q26 28 54 39.5
t60 11.5q34 2 77 -17.5t89 -44.5q38 -20 74 -35.5t57 -15.5q1 0 9 2q18 4 33.5 30.5t23.5 58.5q0 1 0.5 2t0.5 3q2 3 3 9t3 12q8 8 17 8q6 0 16 -5v1q25 -12 34 -27.5t9 -39.5v-2z" />
    <glyph glyph-name=".notdef.088" unicode="&#xd9;" horiz-adv-x="1296" 
d="M1027 1561q0 -8 -8.5 -14.5t-20.5 -11t-26 -6t-24 0.5q-84 16 -159 42.5t-131 57t-89 62.5t-33 59q0 18 18.5 38t49 36t69.5 23.5t81 1.5q18 -26 35 -52t35.5 -50.5t40.5 -49t49 -47.5q15 -12 35 -25t37 -26t29 -23t12 -16zM1015 -37q-38 4 -60 22t-33 44t-14 57t-3 63
v65q0 6 -1 4q-49 -56 -98.5 -103.5t-103.5 -82t-114.5 -54.5t-130.5 -20q-84 0 -141 28.5t-91.5 75.5t-49.5 107t-15 124q0 45 6 87q7 51 22 125t34 158.5t40 172.5t38 168t29 144.5t14 101.5q0 27 -4.5 44.5t-11.5 31t-14.5 24t-13.5 22.5q21 18 52 29.5t64 19t64 10.5
t52 3q95 0 101 -83q0 -37 -9 -92.5t-23 -122t-32 -141t-37 -149.5t-36.5 -147.5t-30.5 -134.5q-14 -71 -25.5 -133t-11.5 -112q0 -81 33.5 -125.5t100.5 -44.5q58 0 125.5 39t135.5 120q39 53 67 129t51 164q23 83 48 182t47.5 196.5t40.5 185t26 147.5q2 13 0.5 19.5
t-3.5 17.5q-5 28 8.5 45t37 26t53 11.5t57.5 2.5q46 0 74.5 -3t45 -11t22.5 -21t6 -33q-2 -29 -14 -62.5t-25 -75.5q-36 -120 -71.5 -250t-64 -254t-46 -235.5t-17.5 -195.5q0 -23 1 -44t4 -39q11 -67 26 -112t48 -74q-50 -35 -108.5 -50.5t-120.5 -10.5z" />
    <glyph glyph-name=".notdef.087" unicode="&#xda;" horiz-adv-x="1296" 
d="M761 1560q0 9 13 18q51 32 91 64t74 64t63 66t56 71q106 0 157 -26t51 -67q0 -27 -29 -57t-85 -56q-29 -16 -65 -32t-77 -30.5t-84.5 -27t-86.5 -19.5q-11 -2 -24.5 -0.5t-25.5 6t-20 11t-8 15.5zM1015 -37q-38 4 -60 22t-33 44t-14 57t-3 63v65q0 6 -1 4
q-49 -56 -98.5 -103.5t-103.5 -82t-114.5 -54.5t-130.5 -20q-84 0 -141 28.5t-91.5 75.5t-49.5 107t-15 124q0 45 6 87q7 51 22 125t34 158.5t40 172.5t38 168t29 144.5t14 101.5q0 27 -4.5 44.5t-11.5 31t-14.5 24t-13.5 22.5q21 18 52 29.5t64 19t64 10.5t52 3
q95 0 101 -83q0 -37 -9 -92.5t-23 -122t-32 -141t-37 -149.5t-36.5 -147.5t-30.5 -134.5q-14 -71 -25.5 -133t-11.5 -112q0 -81 33.5 -125.5t100.5 -44.5q58 0 125.5 39t135.5 120q39 53 67 129t51 164q23 83 48 182t47.5 196.5t40.5 185t26 147.5q2 13 0.5 19.5t-3.5 17.5
q-5 28 8.5 45t37 26t53 11.5t57.5 2.5q46 0 74.5 -3t45 -11t22.5 -21t6 -33q-2 -29 -14 -62.5t-25 -75.5q-36 -120 -71.5 -250t-64 -254t-46 -235.5t-17.5 -195.5q0 -23 1 -44t4 -39q11 -67 26 -112t48 -74q-50 -35 -108.5 -50.5t-120.5 -10.5z" />
    <glyph glyph-name=".notdef.070" unicode="&#xdd;" horiz-adv-x="1138" 
d="M1017 1637q-28 -16 -65 -32t-78 -30.5t-85 -27t-87 -19.5q-5 -2 -18 -2q-6 0 -16 2.5t-19.5 7t-16 11t-6.5 13.5q0 9 12 18q23 15 50 33t56 39q48 37 90 79t71 86q6 9 9 16t8 12h27q32 0 58 -2t45 -10q38 -16 57.5 -38t19.5 -43q0 -13 -5 -19q-16 -51 -107 -94zM853 697
q-48 -64 -92 -145.5t-78.5 -163t-55 -154t-20.5 -118.5q0 -23 5.5 -50t13.5 -50q-38 -19 -89 -32.5t-104 -13.5t-84.5 20t-31.5 65q0 53 26 116.5t59 132.5t63.5 141t39.5 143q-23 142 -55.5 266t-70.5 219.5t-78 157t-76 78.5q-14 5 -24.5 11.5t-21.5 10.5q122 116 241 116
q53 0 92.5 -27t62.5 -84q20 -46 38.5 -106t36.5 -130t35 -147t34 -157q59 95 101 163t72 116.5t50 81.5t34.5 59t26 49t24.5 51q12 26 16.5 54.5t4.5 57.5q0 16 -1 32t-4 31q14 3 27 3.5t27 0.5q99 0 148 -33t49 -87q0 -47 -24.5 -104.5t-63.5 -120t-87.5 -126.5
t-97.5 -123.5t-93.5 -112t-74.5 -91.5z" />
    <glyph glyph-name=".notdef.066" unicode="&#xe0;" horiz-adv-x="1066" 
d="M1041 245q44 48 71.5 70t41.5 22q9 0 9 -17q0 -33 -15 -71t-40.5 -75t-58.5 -71t-69.5 -60t-73.5 -41.5t-69 -15.5q-77 0 -120.5 47.5t-43.5 147.5q0 16 0.5 36t2 40.5t3 39.5t3.5 33q-104 -170 -203.5 -256t-191.5 -90h-20q-55 0 -93 19t-61.5 53.5t-34 82t-10.5 104.5
q2 89 25.5 180t63.5 175.5t94.5 158.5t118.5 129t135.5 86.5t145.5 31.5q54 0 99 -11.5t82 -39.5q21 24 51 36t65 12q42 0 82.5 -11.5t80.5 -32.5q-17 -25 -37 -77t-40 -118t-38.5 -139.5t-33 -142.5t-23 -128t-8.5 -94q0 -14 0.5 -28t2.5 -25t6 -18t11 -6q23 2 43.5 20
t46.5 44zM564 346q35 51 67.5 106.5t60 109.5t50 105t37.5 93q-7 28 -23 48.5t-36.5 33.5t-43.5 19t-44 6q-37 0 -73 -27.5t-69 -73.5t-61 -106.5t-48.5 -126.5t-32 -133t-11.5 -127q3 -49 17.5 -72.5t43.5 -23.5t70.5 44t95.5 125zM963 1163q0 -8 -8 -15t-20 -11.5t-26 -6
t-25 0.5q-83 17 -157.5 43.5t-130.5 57t-89 62t-33 59.5q0 18 18.5 38t48.5 35.5t69 24t81 2.5q18 -27 35 -53t35.5 -51t40.5 -49t49 -46q15 -12 34.5 -25.5t37 -26.5t29 -23t11.5 -16z" />
    <glyph glyph-name=".notdef.065" unicode="&#xe1;" horiz-adv-x="1066" 
d="M1041 245q44 48 71.5 70t41.5 22q9 0 9 -17q0 -33 -15 -71t-40.5 -75t-58.5 -71t-69.5 -60t-73.5 -41.5t-69 -15.5q-77 0 -120.5 47.5t-43.5 147.5q0 16 0.5 36t2 40.5t3 39.5t3.5 33q-104 -170 -203.5 -256t-191.5 -90h-20q-55 0 -93 19t-61.5 53.5t-34 82t-10.5 104.5
q2 89 25.5 180t63.5 175.5t94.5 158.5t118.5 129t135.5 86.5t145.5 31.5q54 0 99 -11.5t82 -39.5q21 24 51 36t65 12q42 0 82.5 -11.5t80.5 -32.5q-17 -25 -37 -77t-40 -118t-38.5 -139.5t-33 -142.5t-23 -128t-8.5 -94q0 -14 0.5 -28t2.5 -25t6 -18t11 -6q23 2 43.5 20
t46.5 44zM564 346q35 51 67.5 106.5t60 109.5t50 105t37.5 93q-7 28 -23 48.5t-36.5 33.5t-43.5 19t-44 6q-37 0 -73 -27.5t-69 -73.5t-61 -106.5t-48.5 -126.5t-32 -133t-11.5 -127q3 -49 17.5 -72.5t43.5 -23.5t70.5 44t95.5 125zM582 1161q0 11 14 19q50 32 90 64t74 64
t62.5 66t56.5 71q106 0 157 -26t51 -68q0 -26 -29 -56.5t-85 -56.5q-29 -16 -65 -32t-77 -30.5t-84.5 -26.5t-86.5 -20q-11 -2 -24.5 -0.5t-25.5 6t-20 11.5t-8 15z" />
    <glyph glyph-name=".notdef.061" unicode="&#xe2;" horiz-adv-x="1066" 
d="M1041 245q44 48 71.5 70t41.5 22q9 0 9 -17q0 -33 -15 -71t-40.5 -75t-58.5 -71t-69.5 -60t-73.5 -41.5t-69 -15.5q-77 0 -120.5 47.5t-43.5 147.5q0 16 0.5 36t2 40.5t3 39.5t3.5 33q-104 -170 -203.5 -256t-191.5 -90h-20q-55 0 -93 19t-61.5 53.5t-34 82t-10.5 104.5
q2 89 25.5 180t63.5 175.5t94.5 158.5t118.5 129t135.5 86.5t145.5 31.5q54 0 99 -11.5t82 -39.5q21 24 51 36t65 12q42 0 82.5 -11.5t80.5 -32.5q-17 -25 -37 -77t-40 -118t-38.5 -139.5t-33 -142.5t-23 -128t-8.5 -94q0 -14 0.5 -28t2.5 -25t6 -18t11 -6q23 2 43.5 20
t46.5 44zM564 346q35 51 67.5 106.5t60 109.5t50 105t37.5 93q-7 28 -23 48.5t-36.5 33.5t-43.5 19t-44 6q-37 0 -73 -27.5t-69 -73.5t-61 -106.5t-48.5 -126.5t-32 -133t-11.5 -127q3 -49 17.5 -72.5t43.5 -23.5t70.5 44t95.5 125zM1075 1173q-13 -16 -28 -24.5
t-28.5 -12.5t-23 -4.5t-12.5 -0.5q-15 0 -38.5 11t-51.5 30.5t-58 46t-59 58.5q-43 -32 -87 -59t-83 -46.5t-71.5 -30t-53.5 -10.5q-18 0 -36 6t-18 22q23 20 48 41q21 18 47 40.5t51 43.5q43 38 83.5 70t76 54.5t64 35t49.5 12.5q12 0 24 -2.5t20 -8.5q10 -29 30 -65
t44.5 -73t53 -72t57.5 -62z" />
    <glyph glyph-name=".notdef.063" unicode="&#xe3;" horiz-adv-x="1066" 
d="M1041 245q44 48 71.5 70t41.5 22q9 0 9 -17q0 -33 -15 -71t-40.5 -75t-58.5 -71t-69.5 -60t-73.5 -41.5t-69 -15.5q-77 0 -120.5 47.5t-43.5 147.5q0 16 0.5 36t2 40.5t3 39.5t3.5 33q-104 -170 -203.5 -256t-191.5 -90h-20q-55 0 -93 19t-61.5 53.5t-34 82t-10.5 104.5
q2 89 25.5 180t63.5 175.5t94.5 158.5t118.5 129t135.5 86.5t145.5 31.5q54 0 99 -11.5t82 -39.5q21 24 51 36t65 12q42 0 82.5 -11.5t80.5 -32.5q-17 -25 -37 -77t-40 -118t-38.5 -139.5t-33 -142.5t-23 -128t-8.5 -94q0 -14 0.5 -28t2.5 -25t6 -18t11 -6q23 2 43.5 20
t46.5 44zM564 346q35 51 67.5 106.5t60 109.5t50 105t37.5 93q-7 28 -23 48.5t-36.5 33.5t-43.5 19t-44 6q-37 0 -73 -27.5t-69 -73.5t-61 -106.5t-48.5 -126.5t-32 -133t-11.5 -127q3 -49 17.5 -72.5t43.5 -23.5t70.5 44t95.5 125zM1091 1323q-5 -42 -22 -79t-40 -64
q-25 -29 -54.5 -44.5t-64.5 -15.5t-75 17.5t-89 45.5q-43 25 -74 39.5t-52 14.5q-7 0 -12 -2q-19 -5 -33.5 -27t-23.5 -59l-8 -15q-1 -1 -1 -4q0 -1 -2 -7v1q-4 -11 -16 -11q-8 0 -17 5t-16 9q-14 12 -18 18.5t-4 18.5q0 11 1.5 20l3.5 21q15 79 57 128q26 28 54 39.5
t60 11.5q34 2 77 -17.5t89 -44.5q38 -20 74 -35.5t57 -15.5q1 0 9 2q18 4 33.5 30.5t23.5 58.5q0 1 0.5 2t0.5 3q2 3 3 9t3 12q8 8 17 8q6 0 16 -5v1q25 -12 34 -27.5t9 -39.5v-2z" />
    <glyph glyph-name=".notdef.049" unicode="&#xe8;" horiz-adv-x="885" 
d="M545 127q99 10 177 51.5t150 111.5q19 -35 16.5 -74.5t-28.5 -71.5q-23 -29 -57.5 -54.5t-79.5 -45.5q-137 -62 -292 -62q-162 0 -251.5 70t-96.5 213q-3 71 7.5 141t33.5 136t59 126t84 111q94 112 208 169.5t239 57.5q116 0 172 -48.5t54 -143.5q0 -47 -29 -98.5
t-83 -102t-130 -95.5t-169 -78q-22 -8 -53 -21t-59 -29t-48 -34.5t-21 -36.5q-2 -34 3 -61.5t18 -45.5q30 -45 76.5 -68.5t99.5 -16.5zM385 527q-2 -10 -5 -22q-2 -11 -5.5 -26t-7.5 -34q12 25 28 43t35.5 32t42.5 26.5t49 26.5q44 24 73.5 48t48.5 47t29.5 47t17.5 48t6 46
t-9.5 38.5t-25 26t-41.5 9.5q-75 0 -135.5 -91.5t-100.5 -264.5zM844 1161q0 -8 -8 -15t-20 -11.5t-26 -6t-25 0.5q-84 17 -158.5 43.5t-130.5 57t-89 62t-33 59.5q0 18 18.5 38t49 36t69.5 24t80 2q18 -26 35 -52t35.5 -51t40.5 -49.5t50 -46.5q15 -12 34.5 -25.5
t36.5 -26.5t29 -23t12 -16z" />
    <glyph glyph-name=".notdef.048" unicode="&#xe9;" horiz-adv-x="885" 
d="M545 127q99 10 177 51.5t150 111.5q19 -35 16.5 -74.5t-28.5 -71.5q-23 -29 -57.5 -54.5t-79.5 -45.5q-137 -62 -292 -62q-162 0 -251.5 70t-96.5 213q-3 71 7.5 141t33.5 136t59 126t84 111q94 112 208 169.5t239 57.5q116 0 172 -48.5t54 -143.5q0 -47 -29 -98.5
t-83 -102t-130 -95.5t-169 -78q-22 -8 -53 -21t-59 -29t-48 -34.5t-21 -36.5q-2 -34 3 -61.5t18 -45.5q30 -45 76.5 -68.5t99.5 -16.5zM385 527q-2 -10 -5 -22q-2 -11 -5.5 -26t-7.5 -34q12 25 28 43t35.5 32t42.5 26.5t49 26.5q44 24 73.5 48t48.5 47t29.5 47t17.5 48t6 46
t-9.5 38.5t-25 26t-41.5 9.5q-75 0 -135.5 -91.5t-100.5 -264.5zM404 1161q0 10 13 19q51 32 91 64t74 64t62.5 66t56.5 71q105 0 156.5 -26t51.5 -68q0 -26 -29.5 -56.5t-84.5 -56.5q-29 -16 -65 -32t-77 -30.5t-85 -26.5t-87 -20q-11 -2 -24.5 -0.5t-25 6t-19.5 11.5
t-8 15z" />
    <glyph glyph-name=".notdef.044" unicode="&#xea;" horiz-adv-x="883" 
d="M545 127q99 10 177 51.5t150 111.5q19 -35 16.5 -74.5t-28.5 -71.5q-23 -29 -57.5 -54.5t-79.5 -45.5q-137 -62 -292 -62q-162 0 -251.5 70t-96.5 213q-3 71 7.5 141t33.5 136t59 126t84 111q94 112 208 169.5t239 57.5q116 0 172 -48.5t54 -143.5q0 -47 -29 -98.5
t-83 -102t-130 -95.5t-169 -78q-22 -8 -53 -21t-59 -29t-48 -34.5t-21 -36.5q-2 -34 3 -61.5t18 -45.5q30 -45 76.5 -68.5t99.5 -16.5zM385 527q-2 -10 -5 -22q-2 -11 -5.5 -26t-7.5 -34q12 25 28 43t35.5 32t42.5 26.5t49 26.5q44 24 73.5 48t48.5 47t29.5 47t17.5 48t6 46
t-9.5 38.5t-25 26t-41.5 9.5q-75 0 -135.5 -91.5t-100.5 -264.5zM983 1173q-13 -16 -28 -24.5t-28.5 -12.5t-23.5 -4.5t-13 -0.5q-15 0 -38 11t-51 30.5t-58 46t-59 58.5q-43 -32 -86.5 -59t-83 -46.5t-72 -30t-53.5 -10.5q-18 0 -35.5 6t-17.5 22q23 20 48 41
q21 18 46.5 40.5t50.5 43.5q44 38 84 70t75 54.5t64 35t50 12.5q12 0 24 -2.5t20 -8.5q10 -29 30 -65t44.5 -73t53 -72t57.5 -62z" />
    <glyph glyph-name=".notdef.038" unicode="&#xec;" horiz-adv-x="544" 
d="M524 247q121 133 121 75q0 -29 -29 -99q-20 -45 -55 -87t-77 -75t-85.5 -52.5t-79.5 -19.5q-74 0 -116.5 41.5t-47.5 127.5q-2 15 -1.5 44t4.5 68t12 86t22 99q12 42 22 86.5t18.5 87t15.5 79t12 62.5q5 28 7 53.5t2 46.5q0 51 -28 92q49 18 95.5 28.5t89.5 10.5
q23 0 49 -6t42 -24q34 -34 23 -95q-4 -23 -8.5 -45.5t-11.5 -47.5q-11 -39 -23 -83t-23 -85.5t-20.5 -76t-13.5 -53.5q-5 -24 -10 -54.5t-9 -61.5t-6 -59t-2 -48q0 -14 0.5 -28t2.5 -25.5t6 -18.5t11 -7q13 0 38 19t53 45zM715 1161q0 -8 -8.5 -15t-20.5 -11.5t-25.5 -6
t-24.5 0.5q-84 17 -158.5 43.5t-130.5 57t-89 62t-33 59.5q0 18 18.5 38t49 36t69.5 24t81 2q18 -26 34.5 -52t35.5 -51t40.5 -49.5t49.5 -46.5q15 -12 34.5 -25.5t36.5 -26.5t29 -23t12 -16z" />
    <glyph glyph-name=".notdef.037" unicode="&#xed;" horiz-adv-x="536" 
d="M524 247q121 133 121 75q0 -29 -29 -99q-20 -45 -55 -87t-77 -75t-85.5 -52.5t-79.5 -19.5q-74 0 -116.5 41.5t-47.5 127.5q-2 15 -1.5 44t4.5 68t12 86t22 99q12 42 22 86.5t18.5 87t15.5 79t12 62.5q5 28 7 53.5t2 46.5q0 51 -28 92q49 18 95.5 28.5t89.5 10.5
q23 0 49 -6t42 -24q34 -34 23 -95q-4 -23 -8.5 -45.5t-11.5 -47.5q-11 -39 -23 -83t-23 -85.5t-20.5 -76t-13.5 -53.5q-5 -24 -10 -54.5t-9 -61.5t-6 -59t-2 -48q0 -14 0.5 -28t2.5 -25.5t6 -18.5t11 -7q13 0 38 19t53 45zM236 1161q0 11 12 19q51 32 91.5 64t74 64t62.5 66
t57 71q106 0 157 -26t51 -68q0 -26 -29.5 -56.5t-85.5 -56.5q-28 -16 -64.5 -32t-77.5 -30.5t-84.5 -26.5t-86.5 -20q-11 -2 -24.5 -0.5t-25 6t-19.5 11.5t-8 15z" />
    <glyph glyph-name=".notdef.033" unicode="&#xf2;" horiz-adv-x="986" 
d="M269 800q86 96 192 151t227 55q75 0 137 -22.5t106.5 -64.5t69 -103t24.5 -137q0 -87 -21.5 -172t-60.5 -162.5t-93.5 -144t-121 -115t-143 -76t-158.5 -27.5q-76 0 -138 23.5t-106.5 67.5t-68.5 107.5t-24 143.5q0 135 45.5 254t133.5 222zM751 679q0 40 -6 75t-20 61
t-37 40.5t-56 14.5q-41 0 -77 -27t-66 -72.5t-54 -104t-40.5 -121.5t-25 -125.5t-8.5 -115.5q0 -41 6.5 -75.5t21 -59.5t38 -39t56.5 -14q40 0 76 27t65.5 71.5t53 103t40 121t25 125t8.5 115.5zM859 1161q0 -8 -8.5 -15t-20.5 -11.5t-26 -6t-25 0.5q-84 17 -158.5 43.5
t-130.5 57t-88.5 62t-32.5 59.5q0 18 18.5 38t48.5 36t69 24t81 2q18 -26 35 -52t35.5 -51t40.5 -49.5t49 -46.5q15 -12 35 -25.5t37 -26.5t29 -23t12 -16z" />
    <glyph glyph-name=".notdef.032" unicode="&#xf3;" horiz-adv-x="986" 
d="M269 800q86 96 192 151t227 55q75 0 137 -22.5t106.5 -64.5t69 -103t24.5 -137q0 -87 -21.5 -172t-60.5 -162.5t-93.5 -144t-121 -115t-143 -76t-158.5 -27.5q-76 0 -138 23.5t-106.5 67.5t-68.5 107.5t-24 143.5q0 135 45.5 254t133.5 222zM751 679q0 40 -6 75t-20 61
t-37 40.5t-56 14.5q-41 0 -77 -27t-66 -72.5t-54 -104t-40.5 -121.5t-25 -125.5t-8.5 -115.5q0 -41 6.5 -75.5t21 -59.5t38 -39t56.5 -14q40 0 76 27t65.5 71.5t53 103t40 121t25 125t8.5 115.5zM452 1161q0 11 12 19q51 32 91 64t74 64t62.5 66t56.5 71q106 0 157 -26
t51 -68q0 -26 -29 -56.5t-85 -56.5q-28 -16 -64.5 -32t-77.5 -30.5t-84.5 -26.5t-86.5 -20q-11 -2 -24.5 -0.5t-25 6t-19.5 11.5t-8 15z" />
    <glyph glyph-name=".notdef.028" unicode="&#xf4;" horiz-adv-x="986" 
d="M269 800q86 96 192 151t227 55q75 0 137 -22.5t106.5 -64.5t69 -103t24.5 -137q0 -87 -21.5 -172t-60.5 -162.5t-93.5 -144t-121 -115t-143 -76t-158.5 -27.5q-76 0 -138 23.5t-106.5 67.5t-68.5 107.5t-24 143.5q0 135 45.5 254t133.5 222zM751 679q0 40 -6 75t-20 61
t-37 40.5t-56 14.5q-41 0 -77 -27t-66 -72.5t-54 -104t-40.5 -121.5t-25 -125.5t-8.5 -115.5q0 -41 6.5 -75.5t21 -59.5t38 -39t56.5 -14q40 0 76 27t65.5 71.5t53 103t40 121t25 125t8.5 115.5zM1015 1173q-12 -16 -27 -24.5t-28.5 -12.5t-23.5 -4.5t-13 -0.5q-15 0 -38 11
t-50.5 30.5t-58 46t-59.5 58.5q-43 -32 -86.5 -59t-83 -46.5t-72 -30t-53.5 -10.5q-18 0 -35.5 6t-17.5 22q23 20 48 41q21 18 46.5 40.5t50.5 43.5q43 38 83.5 70t76 54.5t64 35t49.5 12.5q28 0 45 -11q10 -29 29.5 -65t44 -73t53 -72t56.5 -62z" />
    <glyph glyph-name=".notdef.030" unicode="&#xf5;" horiz-adv-x="986" 
d="M269 800q86 96 192 151t227 55q75 0 137 -22.5t106.5 -64.5t69 -103t24.5 -137q0 -87 -21.5 -172t-60.5 -162.5t-93.5 -144t-121 -115t-143 -76t-158.5 -27.5q-76 0 -138 23.5t-106.5 67.5t-68.5 107.5t-24 143.5q0 135 45.5 254t133.5 222zM751 679q0 40 -6 75t-20 61
t-37 40.5t-56 14.5q-41 0 -77 -27t-66 -72.5t-54 -104t-40.5 -121.5t-25 -125.5t-8.5 -115.5q0 -41 6.5 -75.5t21 -59.5t38 -39t56.5 -14q40 0 76 27t65.5 71.5t53 103t40 121t25 125t8.5 115.5zM1033 1323q-5 -42 -22 -79t-40 -64q-25 -29 -54.5 -44.5t-64.5 -15.5
t-75 17.5t-89 45.5q-43 25 -74 39.5t-52 14.5q-7 0 -12 -2q-19 -5 -33.5 -27t-23.5 -59l-8 -15q-1 -1 -1 -4q0 -1 -2 -7v1q-4 -11 -16 -11q-8 0 -17 5t-16 9q-14 12 -18 18.5t-4 18.5q0 11 1.5 20l3.5 21q15 79 57 128q26 28 54 39.5t60 11.5q34 2 77 -17.5t89 -44.5
q38 -20 74 -35.5t57 -15.5q1 0 9 2q18 4 33.5 30.5t23.5 58.5q0 1 0.5 2t0.5 3q2 3 3 9t3 12q8 8 17 8q6 0 16 -5v1q25 -12 34 -27.5t9 -39.5v-2z" />
    <glyph glyph-name="divide" unicode="&#xf7;" horiz-adv-x="1706" 
 />
    <glyph glyph-name=".notdef.022" unicode="&#xf9;" horiz-adv-x="1085" 
d="M978 1001q22 -2 42.5 -7t36.5 -16.5t25 -30t9 -46.5q0 -29 -6.5 -63.5t-17.5 -74.5q-19 -68 -38.5 -135t-35 -130t-25.5 -120.5t-10 -106.5q0 -14 0.5 -28t2.5 -25.5t6 -18.5t11 -7q13 0 31.5 11.5t39.5 29.5t42 38t39 38t31.5 29.5t18.5 11.5q11 0 11 -16q0 -33 -15 -71
t-40.5 -75.5t-59 -71.5t-70 -60.5t-74 -42t-70.5 -15.5q-77 0 -120.5 48.5t-43.5 148.5q0 38 5 71t12 71q-107 -175 -212 -265t-218 -90q-51 0 -82.5 16.5t-48.5 43t-23 60.5t-6 69q0 36 10 92t24.5 122t32 137t32 136t24.5 120t10 90q0 23 -3.5 48t-15.5 46
q51 20 98.5 29.5t82.5 9.5q32 0 52.5 -8t32.5 -22t17 -32.5t5 -39.5q0 -28 -6.5 -57.5t-12.5 -54.5q-22 -97 -43 -184t-38 -159t-27.5 -127.5t-10.5 -89.5q0 -19 7 -33.5t28 -14.5q19 0 49 22.5t65.5 63.5t75 98t77.5 126q71 129 106.5 239t35.5 185q0 14 -2.5 31t-10.5 31
q36 13 79.5 19.5t78.5 6.5zM870 1161q0 -8 -8.5 -15t-20.5 -11.5t-25.5 -6t-24.5 0.5q-84 17 -158.5 43.5t-130.5 57t-89 62t-33 59.5q0 18 18.5 38t49 36t69.5 24t81 2q18 -26 34.5 -52t35.5 -51t40.5 -49.5t49.5 -46.5q15 -12 34.5 -25.5t36.5 -26.5t29 -23t12 -16z" />
    <glyph glyph-name=".notdef.021" unicode="&#xfa;" horiz-adv-x="1085" 
d="M978 1001q22 -2 42.5 -7t36.5 -16.5t25 -30t9 -46.5q0 -29 -6.5 -63.5t-17.5 -74.5q-19 -68 -38.5 -135t-35 -130t-25.5 -120.5t-10 -106.5q0 -14 0.5 -28t2.5 -25.5t6 -18.5t11 -7q13 0 31.5 11.5t39.5 29.5t42 38t39 38t31.5 29.5t18.5 11.5q11 0 11 -16q0 -33 -15 -71
t-40.5 -75.5t-59 -71.5t-70 -60.5t-74 -42t-70.5 -15.5q-77 0 -120.5 48.5t-43.5 148.5q0 38 5 71t12 71q-107 -175 -212 -265t-218 -90q-51 0 -82.5 16.5t-48.5 43t-23 60.5t-6 69q0 36 10 92t24.5 122t32 137t32 136t24.5 120t10 90q0 23 -3.5 48t-15.5 46
q51 20 98.5 29.5t82.5 9.5q32 0 52.5 -8t32.5 -22t17 -32.5t5 -39.5q0 -28 -6.5 -57.5t-12.5 -54.5q-22 -97 -43 -184t-38 -159t-27.5 -127.5t-10.5 -89.5q0 -19 7 -33.5t28 -14.5q19 0 49 22.5t65.5 63.5t75 98t77.5 126q71 129 106.5 239t35.5 185q0 14 -2.5 31t-10.5 31
q36 13 79.5 19.5t78.5 6.5zM542 1161q0 11 12 19q51 32 91.5 64t74 64t62.5 66t57 71q105 0 156.5 -26t51.5 -68q0 -26 -29.5 -56.5t-85.5 -56.5q-28 -16 -64.5 -32t-77.5 -30.5t-84.5 -26.5t-86.5 -20q-11 -2 -24.5 -0.5t-25 6t-19.5 11.5t-8 15z" />
    <glyph glyph-name=".notdef.004" unicode="&#xfd;" horiz-adv-x="940" 
d="M874 1238q-29 -16 -65.5 -32t-78 -30.5t-85 -26.5t-86.5 -20q-5 -1 -9.5 -1h-9.5q-6 0 -15.5 2.5t-19 7t-16 10.5t-6.5 13q0 10 11 19q24 15 51 33t56 39q47 37 89 78.5t71 86.5q6 8 9 15t8 13h27q32 0 58 -2t46 -11q37 -15 57 -36.5t20 -44.5q0 -5 -1 -9.5t-4 -8.5
q-18 -51 -107 -95zM-140 -301q-2 5 -2 10.5v10.5q0 26 9.5 58.5t23.5 61.5q13 -12 41.5 -21t51.5 -9q43 0 85 16.5t81.5 46t76 69t68.5 84.5q10 14 13 36.5t3 48.5q0 23 -2 47t-5 44q-19 157 -40.5 283.5t-45 219.5t-48 150.5t-49.5 76.5q56 33 108 51t101 18
q51 0 84.5 -36.5t44.5 -114.5q10 -71 19.5 -148t18 -154.5t15.5 -153t12 -143.5q68 96 125 189.5t98.5 177t64.5 153t23 119.5q0 12 -3.5 29t-9.5 34t-13.5 31.5t-15.5 23.5q16 3 36 4t31 1q102 0 148 -30.5t46 -94.5q0 -44 -34.5 -123.5t-98 -187t-153 -238t-198.5 -274.5
q-102 -135 -184.5 -223t-151 -139t-126 -71.5t-108.5 -20.5q-60 0 -96 22t-44 66z" />
    <glyph glyph-name=".notdef.118" unicode="&#x102;" 
d="M229 5q-42 -14 -84.5 -22.5t-87.5 -8.5q-94 0 -94 65q0 20 7 43t23 53q50 92 108 193t120.5 208t128 217t131.5 220q54 92 115.5 193.5t124.5 215.5q50 38 108.5 54t121.5 9q77 -9 83 -131v-70t2 -83q0 -47 2.5 -87t2.5 -75q1 -16 3.5 -53t5 -84.5t5.5 -99.5t5.5 -99
t4 -83t2.5 -51q6 -88 15.5 -166t23.5 -142q14 -65 34 -111t52 -75q-50 -35 -107.5 -50.5t-120.5 -10.5q-49 4 -80 46t-43 135q-14 76 -18.5 150.5t-11.5 151.5q-21 -17 -42.5 -21.5t-42.5 -4.5q-76 -3 -150 -4t-149 -1q-37 -20 -54.5 -39.5t-31.5 -45.5q-20 -28 -40.5 -70.5
t-36.5 -77.5q-19 -44 -32.5 -92t-2.5 -96zM760 582q14 0 24 2t21 4q0 38 -1.5 87t-3 103t-4 110.5t-5.5 109.5t-6 100.5t-6 83.5q-32 -59 -69 -127.5t-78 -144.5t-85 -158.5t-90 -169.5h303zM1225 1761q-12 -50 -46 -93.5t-79 -75.5t-95.5 -50.5t-96.5 -18.5q-57 0 -101 14
t-75 38.5t-49 59t-23 76.5q0 15 4 33t12 34t21.5 26.5t32.5 10.5q11 0 14 -2q17 -64 58.5 -99.5t121.5 -35.5q88 0 141 35t82 99q4 1 8 1h8q34 0 48 -16.5t14 -35.5z" />
    <glyph glyph-name=".notdef.055" unicode="&#x103;" horiz-adv-x="1066" 
d="M1041 245q44 48 71.5 70t41.5 22q9 0 9 -17q0 -33 -15 -71t-40.5 -75t-58.5 -71t-69.5 -60t-73.5 -41.5t-69 -15.5q-77 0 -120.5 47.5t-43.5 147.5q0 16 0.5 36t2 40.5t3 39.5t3.5 33q-104 -170 -203.5 -256t-191.5 -90h-20q-55 0 -93 19t-61.5 53.5t-34 82t-10.5 104.5
q2 89 25.5 180t63.5 175.5t94.5 158.5t118.5 129t135.5 86.5t145.5 31.5q54 0 99 -11.5t82 -39.5q21 24 51 36t65 12q42 0 82.5 -11.5t80.5 -32.5q-17 -25 -37 -77t-40 -118t-38.5 -139.5t-33 -142.5t-23 -128t-8.5 -94q0 -14 0.5 -28t2.5 -25t6 -18t11 -6q23 2 43.5 20
t46.5 44zM564 346q35 51 67.5 106.5t60 109.5t50 105t37.5 93q-7 28 -23 48.5t-36.5 33.5t-43.5 19t-44 6q-37 0 -73 -27.5t-69 -73.5t-61 -106.5t-48.5 -126.5t-32 -133t-11.5 -127q3 -49 17.5 -72.5t43.5 -23.5t70.5 44t95.5 125zM1107 1364q-12 -50 -46 -93.5t-79 -75.5
t-95.5 -50.5t-96.5 -18.5q-57 0 -101 14t-75 38.5t-49 59t-23 76.5q0 15 4 33t12 34t21.5 26.5t32.5 10.5q11 0 14 -2q17 -64 58.5 -99.5t121.5 -35.5q88 0 141 35t82 99q4 1 8 1h8q34 0 48 -16.5t14 -35.5z" />
    <glyph glyph-name="Dslash" unicode="&#x110;" horiz-adv-x="1284" 
d="M781 1447q128 0 230.5 -29t174.5 -89.5t110.5 -155t38.5 -225.5t-32.5 -254t-90 -231.5t-137 -199t-174 -155t-201 -100.5t-217.5 -36q-97 0 -189.5 30.5t-170.5 89.5q-2 14 1 30t8 42q26 118 56 239.5t59 239.5h-61q-30 0 -55 -2t-39 -7q7 34 15.5 62t22 48t34 31.5
t52.5 11.5l64 -2q21 92 39 173t29 148q6 27 6 44q0 21 -8.5 30t-19 15t-19 12t-8.5 21q0 37 10.5 73t31.5 67q44 16 96 30.5t109 25.5t116.5 17t118.5 6zM589 140q67 0 127.5 30.5t112.5 83.5t94.5 125.5t72 156.5t46 176t16.5 185q0 90 -20 161.5t-59.5 121t-98 76
t-134.5 26.5q-11 0 -28 -1.5t-36.5 -3.5t-40 -5.5t-38.5 -7.5q13 -39 13 -84q0 -26 -5.5 -66.5t-15.5 -92t-22.5 -111.5t-27.5 -125h54q54 0 110 3.5t107 13.5q-9 -63 -26 -95.5t-47.5 -47t-77 -15.5t-114.5 -1h-39q-25 -109 -49 -214.5t-43 -189.5q12 -54 50.5 -76.5
t118.5 -22.5z" />
    <glyph glyph-name="dcroat" unicode="&#x111;" horiz-adv-x="1067" 
d="M1325 1248q-6 -34 -14.5 -57.5t-20 -40t-27.5 -27t-38 -17.5q-49 -7 -106 -10q-34 -147 -66 -272q-33 -127 -58.5 -231.5t-41 -186.5t-15.5 -141q0 -27 6.5 -46t13.5 -31q14 3 38.5 21t51.5 44q86 92 111 92q11 0 11 -17q0 -34 -15 -72t-40.5 -75t-58.5 -70.5t-69 -59.5
t-73 -41t-70 -15q-81 0 -123 48t-42 152q0 33 3 74t7 68q-57 -93 -113.5 -160t-112 -110t-107.5 -63t-100 -20q-44 0 -78.5 17.5t-58.5 49.5t-36.5 77t-12.5 101q0 86 21.5 176t60 175.5t92 160.5t118.5 131.5t138.5 89.5t151.5 33q54 0 95.5 -13t82.5 -34q19 77 30 145h-47
q-82 0 -146 -5t-104 -13q5 21 12.5 50.5t16.5 55.5q11 22 26.5 32t42.5 17q17 1 38 1.5t44 0.5q56 0 129 -2v1q0 23 -4 43.5t-15 37.5q49 28 98.5 42t89.5 14q53 0 78.5 -26.5t25.5 -77.5q0 -17 -1 -34q34 1 65 3q76 5 116 15zM619 420q48 77 88.5 155.5t75.5 156.5
q-5 27 -18.5 49.5t-33.5 38t-44.5 24.5t-50.5 9q-37 0 -73.5 -24.5t-69.5 -67t-61.5 -99.5t-49.5 -121.5t-33 -133t-12 -134.5q6 -96 59 -96q38 0 96 64t127 179z" />
    <glyph glyph-name=".notdef.102" unicode="&#x128;" horiz-adv-x="571" 
d="M169 267q20 80 42.5 172t45 186.5t43 187t37.5 173.5q14 64 22.5 119.5t11.5 103.5q1 14 1.5 29.5t-3.5 29.5t-13 26t-28 20q-13 3 -18 19q-5 14 -4 17t9 8q28 17 59.5 30t62 22t59.5 13.5t53 4.5q26 0 53.5 -8t44.5 -29q17 -20 19.5 -50t-1.5 -54q-54 -231 -109 -458.5
t-101 -459.5q-11 -56 -19.5 -104t-8.5 -86q0 -37 11.5 -70.5t31.5 -64.5q0 -10 -13 -19t-33.5 -17t-46 -15t-50.5 -11.5t-46.5 -7t-33.5 -2.5q-61 0 -83 31t-22 87q0 37 8 84t19 93zM880 1731q-5 -42 -22 -79t-40 -64q-25 -29 -54.5 -44.5t-64.5 -15.5t-75 17.5t-89 45.5
q-43 25 -74 39.5t-52 14.5q-7 0 -12 -2q-19 -5 -33.5 -27t-23.5 -59l-8 -15q-1 -1 -1 -4q0 -1 -2 -7v1q-4 -11 -16 -11q-8 0 -17 5t-16 9q-14 12 -18 18.5t-4 18.5q0 11 1.5 20l3.5 21q15 79 57 128q26 28 54 39.5t60 11.5q34 2 77 -17.5t89 -44.5q38 -20 74 -35.5t57 -15.5
q1 0 9 2q18 4 33.5 30.5t23.5 58.5q0 1 0.5 2t0.5 3q2 3 3 9t3 12q8 8 17 8q6 0 16 -5v1q25 -12 34 -27.5t9 -39.5v-2z" />
    <glyph glyph-name=".notdef.035" unicode="&#x129;" horiz-adv-x="545" 
d="M487 247q121 133 121 75q0 -29 -29 -99q-20 -45 -55 -87t-77 -75t-85.5 -52.5t-79.5 -19.5q-74 0 -116.5 41.5t-47.5 127.5q-2 15 -1.5 44t4.5 68t12 86t22 99q23 84 36.5 160t24.5 127q5 28 7 53.5t2 46.5q0 52 -28 92q49 18 95 28.5t90 10.5q23 0 49 -6t42 -23
q34 -35 23 -96q-5 -23 -9 -45t-12 -47q-10 -39 -21 -79t-20.5 -76.5t-17.5 -66.5t-12 -49q-6 -24 -11 -54.5t-8.5 -61.5t-6 -59t-2.5 -48q0 -14 0.5 -28t2.5 -25.5t6 -18.5t11 -7q17 0 40 19t51 45zM718 1327q-5 -42 -22 -79t-40 -64q-25 -29 -54.5 -44.5t-64.5 -15.5
t-75 17.5t-89 45.5q-43 25 -74 39.5t-52 14.5q-7 0 -12 -2q-19 -5 -33.5 -27t-23.5 -59l-8 -15q-1 -1 -1 -4q0 -1 -2 -7v1q-4 -11 -16 -11q-8 0 -17 5t-16 9q-14 12 -18 18.5t-4 18.5q0 11 1.5 20l3.5 21q15 79 57 128q26 28 54 39.5t60 11.5q34 2 77 -17.5t89 -44.5
q38 -20 74 -35.5t57 -15.5q1 0 9 2q18 4 33.5 30.5t23.5 58.5q0 1 0.5 2t0.5 3q2 3 3 9t3 12q8 8 17 8q6 0 16 -5v1q25 -12 34 -27.5t9 -39.5v-2z" />
    <glyph glyph-name="OE" unicode="&#x152;" horiz-adv-x="1773" 
d="M1150 1395q118 14 240.5 19t240.5 5q56 0 105.5 3.5t88.5 3.5q55 0 82 -6.5t45 -26.5q-5 -33 -17 -67t-30.5 -62t-43.5 -45.5t-55 -17.5q-8 0 -19.5 7t-29 16t-43.5 16t-63 7h-68q-38 0 -73.5 2.5t-64.5 2.5h-81q13 -14 17.5 -28t4.5 -28q0 -7 -0.5 -14.5t-3.5 -15.5
q-17 -78 -36 -167t-43 -186h109q89 0 173.5 8.5t152.5 19.5q0 -20 -6 -45q-15 -55 -42.5 -86.5t-65.5 -47t-86 -19t-104 -3.5h-111h-55q-10 -30 -21.5 -72.5t-21.5 -88.5t-17 -92t-7 -83q0 -56 21 -84.5t52.5 -40t67.5 -12t65 -0.5q69 0 130.5 12.5t110.5 27.5t84 27.5
t52 12.5q0 -87 -33 -138.5t-93 -78.5t-144.5 -35t-187.5 -8q-66 0 -129.5 1t-127.5 1q-77 0 -110 27t-41 74q-84 -63 -178.5 -98.5t-197.5 -35.5q-203 0 -304 122t-101 349q0 121 26.5 243.5t76 236t120 212.5t158.5 172.5t191.5 115.5t219.5 42q65 0 120.5 -14t100.5 -40z
M626 111q71 11 131.5 61t109.5 124t86 165.5t62 185.5t38 183.5t13 159.5q0 66 -11.5 121.5t-36.5 96t-64.5 63.5t-94.5 23q-57 0 -111.5 -39t-103 -104.5t-90 -151t-71 -178.5t-46.5 -188t-17 -178q0 -78 11 -144.5t36 -114t64 -71t95 -14.5z" />
    <glyph glyph-name="oe" unicode="&#x153;" horiz-adv-x="1467" 
d="M1451 285q8 -7 13 -19t5 -37q0 -31 -5 -49.5t-19 -35.5q-23 -29 -57.5 -55t-80.5 -47q-138 -60 -292 -60q-98 0 -165.5 30.5t-108.5 89.5q-64 -56 -146 -88t-173 -32q-158 0 -247 95t-89 247q0 131 45.5 250t132.5 222q86 103 192 156.5t228 53.5q89 0 155.5 -36
t108.5 -105q78 70 167.5 106.5t184.5 36.5q112 0 165.5 -48.5t53.5 -143.5q-1 -47 -29.5 -99t-80.5 -102t-125.5 -95t-163.5 -77q-21 -9 -50.5 -22.5t-56.5 -30t-46.5 -35t-20.5 -36.5q-3 -94 35 -144t121 -50q78 0 163.5 38t185.5 122zM976 527q-2 -10 -5 -22
q-2 -11 -5.5 -26t-7.5 -34q12 25 28 43t35 32t41 26.5t46 26.5q43 25 72 49t47.5 47.5t28.5 46.5t17 47t6 46.5t-9.5 39t-24.5 26.5t-40 10q-72 0 -130.5 -92.5t-98.5 -265.5zM730 612q2 23 3.5 43t1.5 40q0 79 -24 127t-81 48q-58 0 -109 -53t-90 -148
q-35 -85 -53.5 -174.5t-18.5 -175.5q0 -95 27.5 -148t92.5 -53q58 0 104.5 51t81.5 142q28 75 44 149.5t21 151.5z" />
    <glyph glyph-name="Scaron" unicode="&#x160;" horiz-adv-x="1064" 
d="M234 354q-6 -31 4 -64q11 -42 35.5 -75.5t59.5 -56t78.5 -34.5t91.5 -12q59 0 106.5 15t81.5 44t52 71.5t18 98.5q0 63 -30 113t-86 95q-54 45 -113 86t-108 88t-81 105t-32 138q0 109 45 198t121 152.5t175.5 98t207.5 34.5q57 0 108.5 -7t91 -23.5t62.5 -44t23 -69.5
q0 -24 -11 -48t-28.5 -45t-39.5 -38t-43 -27q-22 35 -46 63t-53.5 47.5t-65.5 30t-82 10.5q-49 0 -89 -12t-68.5 -35.5t-44 -58.5t-15.5 -82q0 -42 13.5 -74.5t48.5 -69t95.5 -84t153.5 -119.5q35 -32 63.5 -65t48.5 -70.5t30.5 -79.5t10.5 -91q0 -75 -24.5 -141t-68 -121.5
t-101.5 -99.5t-124.5 -74.5t-139 -46.5t-143.5 -16q-59 0 -123.5 12t-118.5 36.5t-89.5 61.5t-35.5 87q0 28 13 58t36.5 57.5t56.5 49.5t73 34zM575 1794q12 15 27 23t28.5 12t23.5 4.5t13 0.5q15 0 38 -11t51 -30.5t58.5 -46t59.5 -58.5q43 33 86.5 59.5t82.5 46t71.5 30
t53.5 10.5q18 0 36 -5.5t18 -22.5q-23 -20 -48 -41q-21 -18 -47 -40.5t-51 -43.5q-44 -38 -84 -70t-75 -54.5t-63.5 -35t-49.5 -12.5q-13 0 -24.5 3t-19.5 9q-11 29 -30.5 65t-44 73.5t-53.5 72.5t-57 62z" />
    <glyph glyph-name="scaron" unicode="&#x161;" horiz-adv-x="761" 
d="M607 918q-56 0 -82 -30t-26 -84q0 -28 12.5 -54t35.5 -53q30 -36 58.5 -71t51 -73t36.5 -80.5t14 -92.5q0 -83 -35 -155t-94 -125t-135.5 -83t-160.5 -30q-48 0 -96.5 15t-87.5 44.5t-64 71.5t-25 96q0 23 7 42t17.5 34t23.5 26t26 18q16 -43 37.5 -82t49 -69.5t62 -49.5
t76.5 -21q65 0 103.5 36.5t38.5 111.5q0 32 -13 60.5t-34 55.5t-47.5 54t-53.5 57q-35 43 -54 95t-19 106q0 89 40.5 153.5t105.5 106t145 61.5t160 20q50 0 73.5 -12t31.5 -44q0 -28 -14.5 -53.5t-56.5 -54.5q-28 27 -55 40t-52 13zM306 1416q12 15 27 23t28.5 12t23.5 4.5
t13 0.5q15 0 38 -11t51 -30.5t58.5 -46t59.5 -58.5q43 33 86.5 59.5t82.5 46t71.5 30t53.5 10.5q18 0 36 -5.5t18 -22.5q-23 -20 -48 -41q-21 -18 -47 -40.5t-51 -43.5q-44 -38 -84 -70t-75 -54.5t-64 -35t-49 -12.5q-14 0 -25.5 3.5t-19.5 8.5q-10 29 -29.5 65t-44 73.5
t-53.5 72.5t-57 62z" />
    <glyph glyph-name=".notdef.085" unicode="&#x168;" horiz-adv-x="1296" 
d="M1015 -37q-38 4 -60 22t-33 44t-14 57t-3 63v65q0 6 -1 4q-49 -56 -98.5 -103.5t-103.5 -82t-114.5 -54.5t-130.5 -20q-84 0 -141 28.5t-91.5 75.5t-49.5 107t-15 124q0 45 6 87q7 51 22 125t34 158.5t40 172.5t38 168t29 144.5t14 101.5q0 27 -4.5 44.5t-11.5 31
t-14.5 24t-13.5 22.5q21 18 52 29.5t64 19t64 10.5t52 3q95 0 101 -83q0 -37 -9 -92.5t-23 -122t-32 -141t-37 -149.5t-36.5 -147.5t-30.5 -134.5q-14 -71 -25.5 -133t-11.5 -112q0 -81 33.5 -125.5t100.5 -44.5q58 0 125.5 39t135.5 120q39 53 67 129t51 164q23 83 48 182
t47.5 196.5t40.5 185t26 147.5q2 13 0.5 19.5t-3.5 17.5q-5 28 8.5 45t37 26t53 11.5t57.5 2.5q46 0 74.5 -3t45 -11t22.5 -21t6 -33q-2 -29 -14 -62.5t-25 -75.5q-36 -120 -71.5 -250t-64 -254t-46 -235.5t-17.5 -195.5q0 -23 1 -44t4 -39q11 -67 26 -112t48 -74
q-50 -35 -108.5 -50.5t-120.5 -10.5zM1217 1728q-5 -42 -22 -79t-40 -64q-25 -29 -54.5 -44.5t-64.5 -15.5t-75 17.5t-89 45.5q-43 25 -74 39.5t-52 14.5q-7 0 -12 -2q-19 -5 -33.5 -27t-23.5 -59l-8 -15q-1 -1 -1 -4q0 -1 -2 -7v1q-4 -11 -16 -11q-8 0 -17 5t-16 9
q-14 12 -18 18.5t-4 18.5q0 11 1.5 20l3.5 21q15 79 57 128q26 28 54 39.5t60 11.5q34 2 77 -17.5t89 -44.5q38 -20 74 -35.5t57 -15.5q1 0 9 2q18 4 33.5 30.5t23.5 58.5q0 1 0.5 2t0.5 3q2 3 3 9t3 12q8 8 17 8q6 0 16 -5v1q25 -12 34 -27.5t9 -39.5v-2z" />
    <glyph glyph-name=".notdef.019" unicode="&#x169;" horiz-adv-x="1085" 
d="M978 1001q22 -2 42.5 -7t36.5 -16.5t25 -30t9 -46.5q0 -29 -6.5 -63.5t-17.5 -74.5q-19 -68 -38.5 -135t-35 -130t-25.5 -120.5t-10 -106.5q0 -14 0.5 -28t2.5 -25.5t6 -18.5t11 -7q13 0 31.5 11.5t39.5 29.5t42 38t39 38t31.5 29.5t18.5 11.5q11 0 11 -16q0 -33 -15 -71
t-40.5 -75.5t-59 -71.5t-70 -60.5t-74 -42t-70.5 -15.5q-77 0 -120.5 48.5t-43.5 148.5q0 38 5 71t12 71q-107 -175 -212 -265t-218 -90q-51 0 -82.5 16.5t-48.5 43t-23 60.5t-6 69q0 36 10 92t24.5 122t32 137t32 136t24.5 120t10 90q0 23 -3.5 48t-15.5 46
q51 20 98.5 29.5t82.5 9.5q32 0 52.5 -8t32.5 -22t17 -32.5t5 -39.5q0 -28 -6.5 -57.5t-12.5 -54.5q-22 -97 -43 -184t-38 -159t-27.5 -127.5t-10.5 -89.5q0 -19 7 -33.5t28 -14.5q19 0 49 22.5t65.5 63.5t75 98t77.5 126q71 129 106.5 239t35.5 185q0 14 -2.5 31t-10.5 31
q36 13 79.5 19.5t78.5 6.5zM1038 1331q-5 -42 -22 -79t-40 -64q-25 -29 -54.5 -44.5t-64.5 -15.5t-75 17.5t-89 45.5q-43 25 -74 39.5t-52 14.5q-7 0 -12 -2q-19 -5 -33.5 -27t-23.5 -59l-8 -15q-1 -1 -1 -4q0 -1 -2 -7v1q-4 -11 -16 -11q-8 0 -17 5t-16 9q-14 12 -18 18.5
t-4 18.5q0 11 1.5 20l3.5 21q15 79 57 128q26 28 54 39.5t60 11.5q34 2 77 -17.5t89 -44.5q38 -20 74 -35.5t57 -15.5q1 0 9 2q18 4 33.5 30.5t23.5 58.5q0 1 0.5 2t0.5 3q2 3 3 9t3 12q8 8 17 8q6 0 16 -5v1q25 -12 34 -27.5t9 -39.5v-2z" />
    <glyph glyph-name="Ydieresis" unicode="&#x178;" horiz-adv-x="1138" 
d="M907 1624q0 27 3.5 47t7.5 35.5t7.5 28.5t3.5 25q35 18 70.5 28.5t67.5 10.5q54 0 84.5 -24t30.5 -70q0 -22 -8.5 -52.5t-23.5 -69.5q-37 -23 -75 -33.5t-72 -10.5q-18 0 -35.5 4.5t-31 14t-21.5 26t-8 40.5zM508 1624q0 27 3.5 47t8 35.5t8 28.5t3.5 25q36 18 71 28.5
t67 10.5q53 0 83.5 -24t30.5 -70q0 -22 -8 -52.5t-23 -69.5q-38 -23 -75 -33.5t-72 -10.5q-18 0 -35.5 4.5t-31 14t-22 26t-8.5 40.5zM853 697q-48 -64 -92 -145.5t-78.5 -163t-55 -154t-20.5 -118.5q0 -23 5.5 -50t13.5 -50q-38 -19 -89 -32.5t-104 -13.5t-84.5 20
t-31.5 65q0 53 26 116.5t59 132.5t63.5 141t39.5 143q-23 142 -55.5 266t-70.5 219.5t-78 157t-76 78.5q-14 5 -24.5 11.5t-21.5 10.5q122 116 241 116q53 0 92.5 -27t62.5 -84q20 -46 38.5 -106t36.5 -130t35 -147t34 -157q59 95 101 163t72 116.5t50 81.5t34.5 59t26 49
t24.5 51q12 26 16.5 54.5t4.5 57.5q0 16 -1 32t-4 31q14 3 27 3.5t27 0.5q99 0 148 -33t49 -87q0 -47 -24.5 -104.5t-63.5 -120t-87.5 -126.5t-97.5 -123.5t-93.5 -112t-74.5 -91.5z" />
    <glyph glyph-name="Zcaron" unicode="&#x17d;" horiz-adv-x="1213" 
d="M357 171q100 -3 198.5 -4t198.5 -1h132q72 0 141 18.5t130 70.5q2 -19 2 -36.5v-32.5q0 -195 -183 -207q-57 -3 -114 -3q-108 0 -211.5 8.5t-210.5 13.5q-17 2 -35 2h-34q-81 0 -146 -8t-130 -22q-24 12 -39.5 36.5t-22.5 50.5q-13 47 18 91q4 5 29.5 35t66 78t94 111
t113.5 134t124.5 146.5t127 150t121 143.5t106.5 127t83.5 101.5t52.5 65.5q-146 -3 -292 -3q-18 0 -43 -1.5t-51 -3t-51 -2.5t-42 -1q-81 0 -132 49.5t-54 153.5q0 9 1 16t3 14q29 -5 58.5 -12.5t65 -15t78 -12.5t97.5 -5q182 0 361.5 11.5t360.5 34.5q5 -20 9 -39.5
t4 -39.5q0 -28 -12.5 -57t-35 -61t-55 -69t-71.5 -80q-5 -6 -30 -35t-64.5 -75t-90 -105t-106.5 -124.5t-115 -134.5t-115.5 -134.5t-107 -124.5t-89.5 -104.5t-63.5 -74t-29.5 -34.5zM612 1797q12 15 27 23.5t28.5 12.5t23.5 4.5t13 0.5q15 0 38 -11t51 -30.5t58.5 -46
t59.5 -58.5q43 32 86.5 59t82.5 46.5t71.5 30t53.5 10.5q18 0 36 -5.5t18 -22.5q-23 -21 -48 -42q-21 -18 -47 -40t-51 -43q-44 -38 -84 -70t-75 -54.5t-64 -35t-49 -12.5q-29 0 -45 12q-10 29 -29.5 65t-44 73t-53.5 72t-57 62z" />
    <glyph glyph-name="zcaron" unicode="&#x17e;" horiz-adv-x="857" 
d="M997 -9q5 -17 8 -33.5t3 -33.5q0 -47 -17.5 -87t-48 -69.5t-70.5 -46t-85 -16.5q-55 0 -107.5 26.5t-104.5 62.5t-103 73.5t-103 60.5q-107 46 -221 46q-28 0 -54.5 -2.5t-53.5 -6.5q-4 16 -6.5 32t-2.5 33q0 42 16 83t45 73q42 47 97 107.5t118.5 132.5t133.5 155
t141 175q-69 -6 -118.5 -8t-80.5 -2q-92 0 -132.5 28t-40.5 67q0 15 7.5 35.5t19.5 43.5t27 46t31 44q45 -28 123.5 -41.5t188.5 -13.5q49 0 90.5 2t80 6t76 10.5t78.5 14.5q6 -23 6 -46q0 -67 -44 -120q-10 -12 -34.5 -40t-56 -64.5t-66.5 -76.5t-66 -76t-55 -63t-34 -38
q-39 -44 -79 -85t-77.5 -80t-71.5 -76t-61 -74q37 0 76.5 -11t78.5 -28.5t77 -39.5t71 -44q31 -22 66 -39t69.5 -28.5t67.5 -17.5t60 -6q41 0 74.5 13.5t63.5 42.5zM367 1416q12 15 27 23t28.5 12t23.5 4.5t13 0.5q15 0 38 -11t51 -30.5t58 -46t59 -58.5q43 33 86.5 59.5
t83 46t72 30t53.5 10.5q19 0 36 -5.5t17 -22.5q-23 -20 -48 -41q-21 -18 -46.5 -40.5t-50.5 -43.5q-44 -38 -84 -70t-75 -54.5t-63.5 -35t-49.5 -12.5q-13 0 -25 3.5t-20 8.5q-10 29 -29.5 65t-44 73.5t-53.5 72.5t-57 62z" />
    <glyph glyph-name="florin" unicode="&#x192;" horiz-adv-x="967" 
d="M591 746q-17 -76 -31 -147.5t-30 -144t-36.5 -150t-50.5 -165.5q-24 -68 -61.5 -128.5t-86.5 -111.5t-109 -90.5t-127 -65.5q-6 -1 -10 -2t-9 -1q-20 0 -26.5 8.5t-6.5 19.5q2 9 7 14t14 15q69 57 115 134t63 167q4 19 13.5 69.5t22.5 117t27.5 140t27.5 139t23 115
t14 67.5h-95q-44 0 -84.5 -7t-62.5 -18q-7 23 -4.5 48t15.5 47q11 21 32 37t44 21q43 9 89 11.5t97 2.5q3 12 7 30.5t8.5 38.5t8.5 38.5t7 29.5q25 102 80.5 179.5t132 130.5t169.5 80t193 27q37 0 69.5 -4.5t56 -15.5t37 -31t13.5 -51q0 -30 -35.5 -65.5t-105.5 -69.5
q-50 105 -139 105q-18 0 -37 -6.5t-37.5 -17.5t-34.5 -25.5t-26 -29.5q-13 -19 -27.5 -54t-28.5 -80.5t-27 -99t-24 -109.5q55 -1 111 0t106 4t89.5 7t62.5 10q4 -18 3 -36t-5 -34q-8 -30 -45.5 -49t-88 -30t-106.5 -14.5t-100 -1.5q-20 0 -34.5 1t-26.5 1z" />
    <glyph glyph-name=".notdef.077" unicode="&#x1a0;" horiz-adv-x="1418" 
d="M1643 1350q-1 -54 -28.5 -106.5t-84.5 -104.5q-22 -21 -51.5 -40t-62 -34t-65.5 -24l-11 -3q2 -30 2 -62q0 -117 -27.5 -238t-78.5 -234.5t-123 -213t-161 -174t-192.5 -117.5t-217.5 -43q-203 0 -304 122t-101 349q0 121 26.5 243.5t76 236t120.5 212.5t159 172.5
t191.5 115.5t218.5 42q102 0 179 -31.5t129 -92t78 -148.5q7 -21 11 -43q26 11 46 26q56 40 56 115q0 29 -11.5 56t-25.5 48q12 12 31.5 22.5t41.5 18t44.5 12t40.5 4.5q19 0 36 -3.5t30 -13.5t20.5 -26.5t7.5 -42.5zM626 111q72 11 132.5 61t109.5 124t86 165.5t62 185.5
t37.5 183.5t12.5 159.5q0 66 -11.5 121.5t-36.5 96t-64 63.5t-94 23q-57 0 -111.5 -39t-103.5 -104.5t-89.5 -151t-70.5 -178.5t-46.5 -188t-16.5 -178q0 -78 11 -144.5t35 -114t63 -71t95 -14.5z" />
    <glyph glyph-name=".notdef.011" unicode="&#x1a1;" horiz-adv-x="1082" 
d="M1283 925q-1 -49 -26 -97t-77 -96q-20 -19 -47 -36.5t-57 -31.5q-26 -11 -52 -19q-3 -70 -21 -138q-21 -85 -60 -162.5t-93.5 -144t-121 -115t-143 -76t-158.5 -27.5q-76 0 -138 23.5t-106.5 67.5t-68.5 107.5t-24 143.5q0 135 45.5 254t133.5 222q86 96 192 151t227 55
q75 0 137 -22.5t106.5 -64.5t68.5 -103q14 -35 20 -75q8 5 14 10q25 19 38.5 45t13.5 60q0 26 -10.5 51t-22.5 44q11 11 28.5 20.5t37.5 16.5t40.5 11t37.5 4q18 0 33.5 -3.5t27 -12t18.5 -23.5t7 -39zM751 679q0 40 -6 75t-20 61t-37 40.5t-56 14.5q-41 0 -77 -27
t-66 -72.5t-54 -104t-40.5 -121.5t-25 -125.5t-8.5 -115.5q0 -41 6.5 -75.5t21 -59.5t38 -39t56.5 -14q40 0 76 27t65.5 71.5t53 103t40 121t25 125t8.5 115.5z" />
    <glyph glyph-name=".notdef.083" unicode="&#x1af;" horiz-adv-x="1462" 
d="M1715 1350q-1 -54 -28.5 -106.5t-84.5 -104.5q-22 -21 -51.5 -40t-62 -34t-65.5 -24t-62 -9h-30q-12 1 -24 1q-7 -27 -15 -55q-35 -130 -63.5 -254t-46 -235.5t-17.5 -195.5q0 -23 1 -44t4 -39q11 -67 26 -112t48 -74q-50 -35 -108.5 -50.5t-120.5 -10.5q-38 4 -60 22
t-33 44t-14 57t-3 63v65q0 6 -1 4q-49 -56 -98.5 -103.5t-103.5 -82t-114.5 -54.5t-130.5 -20q-84 0 -141 28.5t-91.5 75.5t-49.5 107t-15 124q0 45 6 87q7 51 22 125t34 158.5t40 172.5t38 168t29 144.5t14 101.5q0 27 -4.5 44.5t-11.5 31t-14.5 24t-13.5 22.5
q21 18 52 29.5t64 19t64 10.5t52 3q95 0 101 -83q0 -37 -9 -92.5t-23 -122t-32 -141t-37 -149.5t-36.5 -147.5t-30.5 -134.5q-14 -71 -25.5 -133t-11.5 -112q0 -81 33.5 -125.5t100.5 -44.5q58 0 125.5 39t135.5 120q39 53 67 129t51 164q23 83 48 182t47.5 196.5t40.5 185
t26 147.5q2 13 0.5 19.5t-3.5 17.5q-5 28 8.5 45t37 26t53 11.5t57.5 2.5q46 0 74.5 -3t45 -11t22.5 -21t6 -33q-2 -29 -14 -62.5t-25 -75.5q-17 -58 -35 -117q71 17 115 49q56 40 56 115q0 29 -11.5 56t-25.5 48q12 12 31.5 22.5t41.5 18t44.5 12t40.5 4.5q19 0 36 -3.5
t30 -13.5t20.5 -26.5t7.5 -42.5z" />
    <glyph glyph-name=".notdef.017" unicode="&#x1b0;" horiz-adv-x="1185" 
d="M1364 925q-1 -49 -26 -97t-77 -96q-20 -19 -47 -36.5t-57 -31t-60 -22t-57 -8.5h-10l-2 -6q-19 -67 -34.5 -130t-25.5 -120.5t-10 -106.5q0 -14 0.5 -28t2.5 -25.5t6 -18.5t11 -7q13 0 31.5 11.5t39.5 29.5t42 38t39 38t31.5 29.5t18.5 11.5q11 0 11 -16q0 -33 -15 -71
t-40.5 -75.5t-59 -71.5t-70 -60.5t-74 -42t-70.5 -15.5q-77 0 -120.5 48.5t-43.5 148.5q0 38 5 71t12 71q-107 -175 -212 -265t-218 -90q-51 0 -82.5 16.5t-48.5 43t-23 60.5t-6 69q0 36 10 92t24.5 122t32 137t32 136t24.5 120t10 90q0 23 -3.5 48t-15.5 46
q51 20 98.5 29.5t82.5 9.5q32 0 52.5 -8t32.5 -22t17 -32.5t5 -39.5q0 -28 -6.5 -57.5t-12.5 -54.5q-22 -97 -43 -184t-38 -159t-27.5 -127.5t-10.5 -89.5q0 -19 7 -33.5t28 -14.5q19 0 49 22.5t65.5 63.5t75 98t77.5 126q71 129 106.5 239t35.5 185q0 14 -2.5 31t-10.5 31
q36 13 79.5 19.5t78.5 6.5q22 -2 42.5 -7t36.5 -16.5t25 -30t9 -46.5q0 -29 -6.5 -63.5t-17.5 -74.5q-6 -22 -13 -44h1q36 13 60.5 32t38 45t13.5 60q0 26 -10.5 51t-22.5 44q11 11 28.5 20.5t37.5 16.5t40.5 11t37.5 4q18 0 33.5 -3.5t27 -12t18.5 -23.5t7 -39z" />
    <glyph glyph-name="circumflex" unicode="&#x2c6;" horiz-adv-x="922" 
d="M936 1173q-19 -8 -35.5 -15.5t-33.5 -14.5q-6 -5 -10 -7.5t-6.5 -3.5t-5 -1h-6.5q-15 0 -39 12t-51 32t-56 46.5t-55 55.5q-86 -65 -157.5 -104t-113.5 -39q-17 0 -34.5 3.5t-40.5 14.5q0 2 -1 3.5t-1 3.5q0 7 6 13t14 11q25 17 57 43t68 58q74 65 135.5 108t106.5 59
q15 5 30 5q13 0 25 -2.5t20 -8.5q10 -29 29.5 -65t44 -73t53 -72t57.5 -62z" />
    <glyph glyph-name="tilde" unicode="&#x2dc;" horiz-adv-x="922" 
d="M1023 1386q-15 -102 -77 -167q-60 -69 -142 -69q-42 0 -93.5 21.5t-112.5 54.5q-57 32 -101 50t-73 18q-5 0 -11 -0.5t-13 -2.5q-56 -17 -81 -115q-3 -8 -6.5 -15.5t-6.5 -15.5q-2 -2 -5 -2q-8 0 -20 4.5t-19 9.5q-13 10 -17 16t-4 16q0 12 2 23.5t4 25.5q10 45 27.5 82
t45.5 68q31 32 64.5 45.5t70.5 13.5q45 2 97 -20t113 -54q60 -30 104.5 -48t74.5 -18q5 0 10 1t11 2q32 8 51.5 39t31.5 81q2 7 4.5 14t4.5 14q1 2 5 2q5 0 9 -1.5l12 -4.5q23 -11 31.5 -26.5t8.5 -41.5z" />
    <glyph glyph-name=".notdef.111" unicode="&#x1ea0;" 
d="M229 5q-42 -14 -84.5 -22.5t-87.5 -8.5q-94 0 -94 65q0 20 7 43t23 53q50 92 108 193t120.5 208t128 217t131.5 220q54 92 115.5 193.5t124.5 215.5q50 38 108.5 54t121.5 9q77 -9 83 -131v-70t2 -83q0 -47 2.5 -87t2.5 -75q1 -16 3.5 -53t5 -84.5t5.5 -99.5t5.5 -99
t4 -83t2.5 -51q6 -88 15.5 -166t23.5 -142q14 -65 34 -111t52 -75q-50 -35 -107.5 -50.5t-120.5 -10.5q-49 4 -80 46t-43 135q-14 76 -18.5 150.5t-11.5 151.5q-21 -17 -42.5 -21.5t-42.5 -4.5q-76 -3 -150 -4t-149 -1q-37 -20 -54.5 -39.5t-31.5 -45.5q-20 -28 -40.5 -70.5
t-36.5 -77.5q-19 -44 -32.5 -92t-2.5 -96zM760 582q14 0 24 2t21 4q0 38 -1.5 87t-3 103t-4 110.5t-5.5 109.5t-6 100.5t-6 83.5q-32 -59 -69 -127.5t-78 -144.5t-85 -158.5t-90 -169.5h303zM608 -175q0 -22 -7 -49t-19 -59q-29 -15 -60 -24t-59 -9q-38 0 -58.5 15.5
t-23.5 43.5v23q5 31 10 55t5 38v9t-1 9q61 32 116 32q47 0 72 -22t25 -62z" />
    <glyph glyph-name=".notdef.062" unicode="&#x1ea1;" horiz-adv-x="1066" 
d="M1041 245q44 48 71.5 70t41.5 22q9 0 9 -17q0 -33 -15 -71t-40.5 -75t-58.5 -71t-69.5 -60t-73.5 -41.5t-69 -15.5q-77 0 -120.5 47.5t-43.5 147.5q0 16 0.5 36t2 40.5t3 39.5t3.5 33q-104 -170 -203.5 -256t-191.5 -90h-20q-55 0 -93 19t-61.5 53.5t-34 82t-10.5 104.5
q2 89 25.5 180t63.5 175.5t94.5 158.5t118.5 129t135.5 86.5t145.5 31.5q54 0 99 -11.5t82 -39.5q21 24 51 36t65 12q42 0 82.5 -11.5t80.5 -32.5q-17 -25 -37 -77t-40 -118t-38.5 -139.5t-33 -142.5t-23 -128t-8.5 -94q0 -14 0.5 -28t2.5 -25t6 -18t11 -6q23 2 43.5 20
t46.5 44zM564 346q35 51 67.5 106.5t60 109.5t50 105t37.5 93q-7 28 -23 48.5t-36.5 33.5t-43.5 19t-44 6q-37 0 -73 -27.5t-69 -73.5t-61 -106.5t-48.5 -126.5t-32 -133t-11.5 -127q3 -49 17.5 -72.5t43.5 -23.5t70.5 44t95.5 125zM608 -174q0 -22 -7 -49t-19 -59
q-29 -15 -60 -24t-59 -9q-38 0 -58.5 15.5t-23.5 43.5v23q5 31 10 55t5 38v9t-1 9q61 32 116 32q47 0 72 -22t25 -62z" />
    <glyph glyph-name=".notdef.109" unicode="&#x1ea2;" 
d="M229 5q-42 -14 -84.5 -22.5t-87.5 -8.5q-94 0 -94 65q0 20 7 43t23 53q50 92 108 193t120.5 208t128 217t131.5 220q54 92 115.5 193.5t124.5 215.5q50 38 108.5 54t121.5 9q77 -9 83 -131v-70t2 -83q0 -47 2.5 -87t2.5 -75q1 -16 3.5 -53t5 -84.5t5.5 -99.5t5.5 -99
t4 -83t2.5 -51q6 -88 15.5 -166t23.5 -142q14 -65 34 -111t52 -75q-50 -35 -107.5 -50.5t-120.5 -10.5q-49 4 -80 46t-43 135q-14 76 -18.5 150.5t-11.5 151.5q-21 -17 -42.5 -21.5t-42.5 -4.5q-76 -3 -150 -4t-149 -1q-37 -20 -54.5 -39.5t-31.5 -45.5q-20 -28 -40.5 -70.5
t-36.5 -77.5q-19 -44 -32.5 -92t-2.5 -96zM760 582q14 0 24 2t21 4q0 38 -1.5 87t-3 103t-4 110.5t-5.5 109.5t-6 100.5t-6 83.5q-32 -59 -69 -127.5t-78 -144.5t-85 -158.5t-90 -169.5h303zM1006 1906q42 0 79 -8.5t65 -24t45 -38t20 -50.5q1 -11 0 -23t-5.5 -25.5t-15 -27
t-28.5 -26.5q-9 -6 -30.5 -15t-45.5 -23h2q-27 -18 -49 -39.5t-19 -52.5q1 -11 -9 -17t-24 -9t-27.5 -3.5t-19.5 -0.5q-14 0 -31.5 7t-31.5 19t-21 28t0 35q19 21 46.5 36.5t54 32.5t47.5 38.5t27 54.5q-1 14 -6 23t-11.5 14t-13.5 7t-13 2q-8 0 -19 -4t-16 -19
q-5 -8 -24 -16.5t-63 -13.5q-18 4 -29 10.5t-17 13t-8 12t-2 8.5q-2 19 13.5 36.5t42 30.5t62 20.5t75.5 7.5z" />
    <glyph glyph-name=".notdef.064" unicode="&#x1ea3;" horiz-adv-x="1066" 
d="M1041 245q44 48 71.5 70t41.5 22q9 0 9 -17q0 -33 -15 -71t-40.5 -75t-58.5 -71t-69.5 -60t-73.5 -41.5t-69 -15.5q-77 0 -120.5 47.5t-43.5 147.5q0 16 0.5 36t2 40.5t3 39.5t3.5 33q-104 -170 -203.5 -256t-191.5 -90h-20q-55 0 -93 19t-61.5 53.5t-34 82t-10.5 104.5
q2 89 25.5 180t63.5 175.5t94.5 158.5t118.5 129t135.5 86.5t145.5 31.5q54 0 99 -11.5t82 -39.5q21 24 51 36t65 12q42 0 82.5 -11.5t80.5 -32.5q-17 -25 -37 -77t-40 -118t-38.5 -139.5t-33 -142.5t-23 -128t-8.5 -94q0 -14 0.5 -28t2.5 -25t6 -18t11 -6q23 2 43.5 20
t46.5 44zM564 346q35 51 67.5 106.5t60 109.5t50 105t37.5 93q-7 28 -23 48.5t-36.5 33.5t-43.5 19t-44 6q-37 0 -73 -27.5t-69 -73.5t-61 -106.5t-48.5 -126.5t-32 -133t-11.5 -127q3 -49 17.5 -72.5t43.5 -23.5t70.5 44t95.5 125zM856 1509q42 0 79 -8.5t65 -24t45 -38
t20 -50.5q1 -11 0 -23t-5.5 -25.5t-15 -27t-28.5 -26.5q-9 -6 -30.5 -15t-45.5 -23h2q-27 -18 -49 -39.5t-19 -52.5q1 -11 -9 -17t-24 -9t-27.5 -3.5t-19.5 -0.5q-14 0 -31.5 7t-31.5 19t-21 28t0 35q19 21 46.5 36.5t54 32.5t47.5 38.5t27 54.5q-1 14 -6 23t-11.5 14
t-13.5 7t-13 2q-8 0 -19 -4t-16 -19q-5 -8 -24 -16.5t-63 -13.5q-18 4 -29 10.5t-17 13t-8 12t-2 8.5q-2 19 13.5 36.5t42 30.5t62 20.5t75.5 7.5z" />
    <glyph glyph-name=".notdef.114" unicode="&#x1ea4;" 
d="M229 5q-42 -14 -84.5 -22.5t-87.5 -8.5q-94 0 -94 65q0 20 7 43t23 53q50 92 108 193t120.5 208t128 217t131.5 220q54 92 115.5 193.5t124.5 215.5q50 38 108.5 54t121.5 9q77 -9 83 -131v-70t2 -83q0 -47 2.5 -87t2.5 -75q1 -16 3.5 -53t5 -84.5t5.5 -99.5t5.5 -99
t4 -83t2.5 -51q6 -88 15.5 -166t23.5 -142q14 -65 34 -111t52 -75q-50 -35 -107.5 -50.5t-120.5 -10.5q-49 4 -80 46t-43 135q-14 76 -18.5 150.5t-11.5 151.5q-21 -17 -42.5 -21.5t-42.5 -4.5q-76 -3 -150 -4t-149 -1q-37 -20 -54.5 -39.5t-31.5 -45.5q-20 -28 -40.5 -70.5
t-36.5 -77.5q-19 -44 -32.5 -92t-2.5 -96zM760 582q14 0 24 2t21 4q0 38 -1.5 87t-3 103t-4 110.5t-5.5 109.5t-6 100.5t-6 83.5q-32 -59 -69 -127.5t-78 -144.5t-85 -158.5t-90 -169.5h303zM1209 1564q-13 -16 -28 -24.5t-28.5 -12.5t-23 -4.5t-12.5 -0.5q-15 0 -38.5 11
t-51.5 30.5t-58 46t-59 58.5q-43 -32 -87 -59t-83 -46.5t-71.5 -30t-53.5 -10.5q-18 0 -36 6t-18 22q23 20 48 41q21 18 47 40.5t51 43.5q43 38 83.5 70t76 54.5t64 35t49.5 12.5q12 0 24 -2.5t20 -8.5q10 -29 30 -65t44.5 -73t53 -72t57.5 -62zM1522 1826q-28 -16 -65 -32
t-78 -30.5t-85 -27t-87 -19.5q-5 -2 -18 -2q-6 0 -16 2.5t-19.5 7t-16 11t-6.5 13.5q0 9 12 18q23 15 50 33t56 39q48 37 90 79t71 86q6 9 9 16t8 12h27q32 0 58 -2t45 -10q38 -16 57.5 -38t19.5 -43q0 -13 -5 -19q-16 -51 -107 -94z" />
    <glyph glyph-name=".notdef.059" unicode="&#x1ea5;" horiz-adv-x="1066" 
d="M1041 245q44 48 71.5 70t41.5 22q9 0 9 -17q0 -33 -15 -71t-40.5 -75t-58.5 -71t-69.5 -60t-73.5 -41.5t-69 -15.5q-77 0 -120.5 47.5t-43.5 147.5q0 16 0.5 36t2 40.5t3 39.5t3.5 33q-104 -170 -203.5 -256t-191.5 -90h-20q-55 0 -93 19t-61.5 53.5t-34 82t-10.5 104.5
q2 89 25.5 180t63.5 175.5t94.5 158.5t118.5 129t135.5 86.5t145.5 31.5q54 0 99 -11.5t82 -39.5q21 24 51 36t65 12q42 0 82.5 -11.5t80.5 -32.5q-17 -25 -37 -77t-40 -118t-38.5 -139.5t-33 -142.5t-23 -128t-8.5 -94q0 -14 0.5 -28t2.5 -25t6 -18t11 -6q23 2 43.5 20
t46.5 44zM564 346q35 51 67.5 106.5t60 109.5t50 105t37.5 93q-7 28 -23 48.5t-36.5 33.5t-43.5 19t-44 6q-37 0 -73 -27.5t-69 -73.5t-61 -106.5t-48.5 -126.5t-32 -133t-11.5 -127q3 -49 17.5 -72.5t43.5 -23.5t70.5 44t95.5 125zM1075 1173q-13 -16 -28 -24.5
t-28.5 -12.5t-23 -4.5t-12.5 -0.5q-15 0 -38.5 11t-51.5 30.5t-58 46t-59 58.5q-43 -32 -87 -59t-83 -46.5t-71.5 -30t-53.5 -10.5q-18 0 -36 6t-18 22q23 20 48 41q21 18 47 40.5t51 43.5q43 38 83.5 70t76 54.5t64 35t49.5 12.5q12 0 24 -2.5t20 -8.5q10 -29 30 -65
t44.5 -73t53 -72t57.5 -62zM988 1368q0 11 12 19q51 32 91 64t74 64t62.5 66t56.5 71q106 0 157 -26t51 -68q0 -26 -29 -56.5t-85 -56.5q-28 -16 -64.5 -32t-77.5 -30.5t-84.5 -26.5t-86.5 -20q-11 -2 -24.5 -0.5t-25 6t-19.5 11.5t-8 15z" />
    <glyph glyph-name=".notdef.113" unicode="&#x1ea6;" 
d="M229 5q-42 -14 -84.5 -22.5t-87.5 -8.5q-94 0 -94 65q0 20 7 43t23 53q50 92 108 193t120.5 208t128 217t131.5 220q54 92 115.5 193.5t124.5 215.5q50 38 108.5 54t121.5 9q77 -9 83 -131v-70t2 -83q0 -47 2.5 -87t2.5 -75q1 -16 3.5 -53t5 -84.5t5.5 -99.5t5.5 -99
t4 -83t2.5 -51q6 -88 15.5 -166t23.5 -142q14 -65 34 -111t52 -75q-50 -35 -107.5 -50.5t-120.5 -10.5q-49 4 -80 46t-43 135q-14 76 -18.5 150.5t-11.5 151.5q-21 -17 -42.5 -21.5t-42.5 -4.5q-76 -3 -150 -4t-149 -1q-37 -20 -54.5 -39.5t-31.5 -45.5q-20 -28 -40.5 -70.5
t-36.5 -77.5q-19 -44 -32.5 -92t-2.5 -96zM760 582q14 0 24 2t21 4q0 38 -1.5 87t-3 103t-4 110.5t-5.5 109.5t-6 100.5t-6 83.5q-32 -59 -69 -127.5t-78 -144.5t-85 -158.5t-90 -169.5h303zM1209 1564q-13 -16 -28 -24.5t-28.5 -12.5t-23 -4.5t-12.5 -0.5q-15 0 -38.5 11
t-51.5 30.5t-58 46t-59 58.5q-43 -32 -87 -59t-83 -46.5t-71.5 -30t-53.5 -10.5q-18 0 -36 6t-18 22q23 20 48 41q21 18 47 40.5t51 43.5q43 38 83.5 70t76 54.5t64 35t49.5 12.5q12 0 24 -2.5t20 -8.5q10 -29 30 -65t44.5 -73t53 -72t57.5 -62zM1539 1749q0 -8 -8.5 -14.5
t-20.5 -11t-26 -6t-24 0.5q-84 16 -159 42.5t-131 57t-89 62.5t-33 59q0 18 18.5 38t49 36t69.5 23.5t81 1.5q18 -26 35 -52t35.5 -50.5t40.5 -49t49 -47.5q15 -12 35 -25t37 -26t29 -23t12 -16z" />
    <glyph glyph-name=".notdef.060" unicode="&#x1ea7;" horiz-adv-x="1066" 
d="M1041 245q44 48 71.5 70t41.5 22q9 0 9 -17q0 -33 -15 -71t-40.5 -75t-58.5 -71t-69.5 -60t-73.5 -41.5t-69 -15.5q-77 0 -120.5 47.5t-43.5 147.5q0 16 0.5 36t2 40.5t3 39.5t3.5 33q-104 -170 -203.5 -256t-191.5 -90h-20q-55 0 -93 19t-61.5 53.5t-34 82t-10.5 104.5
q2 89 25.5 180t63.5 175.5t94.5 158.5t118.5 129t135.5 86.5t145.5 31.5q54 0 99 -11.5t82 -39.5q21 24 51 36t65 12q42 0 82.5 -11.5t80.5 -32.5q-17 -25 -37 -77t-40 -118t-38.5 -139.5t-33 -142.5t-23 -128t-8.5 -94q0 -14 0.5 -28t2.5 -25t6 -18t11 -6q23 2 43.5 20
t46.5 44zM564 346q35 51 67.5 106.5t60 109.5t50 105t37.5 93q-7 28 -23 48.5t-36.5 33.5t-43.5 19t-44 6q-37 0 -73 -27.5t-69 -73.5t-61 -106.5t-48.5 -126.5t-32 -133t-11.5 -127q3 -49 17.5 -72.5t43.5 -23.5t70.5 44t95.5 125zM1075 1173q-13 -16 -28 -24.5
t-28.5 -12.5t-23 -4.5t-12.5 -0.5q-15 0 -38.5 11t-51.5 30.5t-58 46t-59 58.5q-43 -32 -87 -59t-83 -46.5t-71.5 -30t-53.5 -10.5q-18 0 -36 6t-18 22q23 20 48 41q21 18 47 40.5t51 43.5q43 38 83.5 70t76 54.5t64 35t49.5 12.5q12 0 24 -2.5t20 -8.5q10 -29 30 -65
t44.5 -73t53 -72t57.5 -62zM1380 1371q0 -8 -8.5 -15t-20.5 -11.5t-25.5 -6t-24.5 0.5q-84 17 -158.5 43.5t-130.5 57t-89 62t-33 59.5q0 18 18.5 38t49 36t69.5 24t81 2q18 -26 34.5 -52t35.5 -51t40.5 -49.5t49.5 -46.5q15 -12 34.5 -25.5t36.5 -26.5t29 -23t12 -16z" />
    <glyph glyph-name=".notdef.115" unicode="&#x1ea8;" 
d="M229 5q-42 -14 -84.5 -22.5t-87.5 -8.5q-94 0 -94 65q0 20 7 43t23 53q50 92 108 193t120.5 208t128 217t131.5 220q54 92 115.5 193.5t124.5 215.5q50 38 108.5 54t121.5 9q77 -9 83 -131v-70t2 -83q0 -47 2.5 -87t2.5 -75q1 -16 3.5 -53t5 -84.5t5.5 -99.5t5.5 -99
t4 -83t2.5 -51q6 -88 15.5 -166t23.5 -142q14 -65 34 -111t52 -75q-50 -35 -107.5 -50.5t-120.5 -10.5q-49 4 -80 46t-43 135q-14 76 -18.5 150.5t-11.5 151.5q-21 -17 -42.5 -21.5t-42.5 -4.5q-76 -3 -150 -4t-149 -1q-37 -20 -54.5 -39.5t-31.5 -45.5q-20 -28 -40.5 -70.5
t-36.5 -77.5q-19 -44 -32.5 -92t-2.5 -96zM760 582q14 0 24 2t21 4q0 38 -1.5 87t-3 103t-4 110.5t-5.5 109.5t-6 100.5t-6 83.5q-32 -59 -69 -127.5t-78 -144.5t-85 -158.5t-90 -169.5h303zM1209 1564q-13 -16 -28 -24.5t-28.5 -12.5t-23 -4.5t-12.5 -0.5q-15 0 -38.5 11
t-51.5 30.5t-58 46t-59 58.5q-43 -32 -87 -59t-83 -46.5t-71.5 -30t-53.5 -10.5q-18 0 -36 6t-18 22q23 20 48 41q21 18 47 40.5t51 43.5q43 38 83.5 70t76 54.5t64 35t49.5 12.5q12 0 24 -2.5t20 -8.5q10 -29 30 -65t44.5 -73t53 -72t57.5 -62zM1271 2097q42 0 79 -8.5
t65 -24t45 -38t20 -50.5q1 -11 0 -23t-5.5 -25.5t-15 -27t-28.5 -26.5q-9 -6 -30.5 -15t-45.5 -23h2q-27 -18 -49 -39.5t-19 -52.5q1 -11 -9 -17t-24 -9t-27.5 -3.5t-19.5 -0.5q-14 0 -31.5 7t-31.5 19t-21 28t0 35q19 21 46.5 36.5t54 32.5t47.5 38.5t27 54.5q-1 14 -6 23
t-11.5 14t-13.5 7t-13 2q-8 0 -19 -4t-16 -19q-5 -8 -24 -16.5t-63 -13.5q-18 4 -29 10.5t-17 13t-8 12t-2 8.5q-2 19 13.5 36.5t42 30.5t62 20.5t75.5 7.5z" />
    <glyph glyph-name=".notdef.058" unicode="&#x1ea9;" horiz-adv-x="1066" 
d="M1041 245q44 48 71.5 70t41.5 22q9 0 9 -17q0 -33 -15 -71t-40.5 -75t-58.5 -71t-69.5 -60t-73.5 -41.5t-69 -15.5q-77 0 -120.5 47.5t-43.5 147.5q0 16 0.5 36t2 40.5t3 39.5t3.5 33q-104 -170 -203.5 -256t-191.5 -90h-20q-55 0 -93 19t-61.5 53.5t-34 82t-10.5 104.5
q2 89 25.5 180t63.5 175.5t94.5 158.5t118.5 129t135.5 86.5t145.5 31.5q54 0 99 -11.5t82 -39.5q21 24 51 36t65 12q42 0 82.5 -11.5t80.5 -32.5q-17 -25 -37 -77t-40 -118t-38.5 -139.5t-33 -142.5t-23 -128t-8.5 -94q0 -14 0.5 -28t2.5 -25t6 -18t11 -6q23 2 43.5 20
t46.5 44zM564 346q35 51 67.5 106.5t60 109.5t50 105t37.5 93q-7 28 -23 48.5t-36.5 33.5t-43.5 19t-44 6q-37 0 -73 -27.5t-69 -73.5t-61 -106.5t-48.5 -126.5t-32 -133t-11.5 -127q3 -49 17.5 -72.5t43.5 -23.5t70.5 44t95.5 125zM1075 1173q-13 -16 -28 -24.5
t-28.5 -12.5t-23 -4.5t-12.5 -0.5q-15 0 -38.5 11t-51.5 30.5t-58 46t-59 58.5q-43 -32 -87 -59t-83 -46.5t-71.5 -30t-53.5 -10.5q-18 0 -36 6t-18 22q23 20 48 41q21 18 47 40.5t51 43.5q43 38 83.5 70t76 54.5t64 35t49.5 12.5q12 0 24 -2.5t20 -8.5q10 -29 30 -65
t44.5 -73t53 -72t57.5 -62zM1137 1720q42 0 79 -8.5t65 -24t45 -38t20 -50.5q1 -11 0 -23t-5.5 -25.5t-15 -27t-28.5 -26.5q-9 -6 -30.5 -15t-45.5 -23h2q-27 -18 -49 -39.5t-19 -52.5q1 -11 -9 -17t-24 -9t-27.5 -3.5t-19.5 -0.5q-14 0 -31.5 7t-31.5 19t-21 28t0 35
q19 21 46.5 36.5t54 32.5t47.5 38.5t27 54.5q-1 14 -6 23t-11.5 14t-13.5 7t-13 2q-8 0 -19 -4t-16 -19q-5 -8 -24 -16.5t-63 -13.5q-18 4 -29 10.5t-17 13t-8 12t-2 8.5q-2 19 13.5 36.5t42 30.5t62 20.5t75.5 7.5z" />
    <glyph glyph-name=".notdef.116" unicode="&#x1eaa;" 
d="M229 5q-42 -14 -84.5 -22.5t-87.5 -8.5q-94 0 -94 65q0 20 7 43t23 53q50 92 108 193t120.5 208t128 217t131.5 220q54 92 115.5 193.5t124.5 215.5q50 38 108.5 54t121.5 9q77 -9 83 -131v-70t2 -83q0 -47 2.5 -87t2.5 -75q1 -16 3.5 -53t5 -84.5t5.5 -99.5t5.5 -99
t4 -83t2.5 -51q6 -88 15.5 -166t23.5 -142q14 -65 34 -111t52 -75q-50 -35 -107.5 -50.5t-120.5 -10.5q-49 4 -80 46t-43 135q-14 76 -18.5 150.5t-11.5 151.5q-21 -17 -42.5 -21.5t-42.5 -4.5q-76 -3 -150 -4t-149 -1q-37 -20 -54.5 -39.5t-31.5 -45.5q-20 -28 -40.5 -70.5
t-36.5 -77.5q-19 -44 -32.5 -92t-2.5 -96zM760 582q14 0 24 2t21 4q0 38 -1.5 87t-3 103t-4 110.5t-5.5 109.5t-6 100.5t-6 83.5q-32 -59 -69 -127.5t-78 -144.5t-85 -158.5t-90 -169.5h303zM1209 1564q-13 -16 -28 -24.5t-28.5 -12.5t-23 -4.5t-12.5 -0.5q-15 0 -38.5 11
t-51.5 30.5t-58 46t-59 58.5q-43 -32 -87 -59t-83 -46.5t-71.5 -30t-53.5 -10.5q-18 0 -36 6t-18 22q23 20 48 41q21 18 47 40.5t51 43.5q43 38 83.5 70t76 54.5t64 35t49.5 12.5q12 0 24 -2.5t20 -8.5q10 -29 30 -65t44.5 -73t53 -72t57.5 -62zM1332 2082q-5 -42 -22 -79
t-40 -64q-25 -29 -54.5 -44.5t-64.5 -15.5t-75 17.5t-89 45.5q-43 25 -74 39.5t-52 14.5q-7 0 -12 -2q-19 -5 -33.5 -27t-23.5 -59l-8 -15q-1 -1 -1 -4q0 -1 -2 -7v1q-4 -11 -16 -11q-8 0 -17 5t-16 9q-14 12 -18 18.5t-4 18.5q0 11 1.5 20l3.5 21q15 79 57 128
q26 28 54 39.5t60 11.5q34 2 77 -17.5t89 -44.5q38 -20 74 -35.5t57 -15.5q1 0 9 2q18 4 33.5 30.5t23.5 58.5q0 1 0.5 2t0.5 3q2 3 3 9t3 12q8 8 17 8q6 0 16 -5v1q25 -12 34 -27.5t9 -39.5v-2z" />
    <glyph glyph-name=".notdef.057" unicode="&#x1eab;" horiz-adv-x="1066" 
d="M1041 245q44 48 71.5 70t41.5 22q9 0 9 -17q0 -33 -15 -71t-40.5 -75t-58.5 -71t-69.5 -60t-73.5 -41.5t-69 -15.5q-77 0 -120.5 47.5t-43.5 147.5q0 16 0.5 36t2 40.5t3 39.5t3.5 33q-104 -170 -203.5 -256t-191.5 -90h-20q-55 0 -93 19t-61.5 53.5t-34 82t-10.5 104.5
q2 89 25.5 180t63.5 175.5t94.5 158.5t118.5 129t135.5 86.5t145.5 31.5q54 0 99 -11.5t82 -39.5q21 24 51 36t65 12q42 0 82.5 -11.5t80.5 -32.5q-17 -25 -37 -77t-40 -118t-38.5 -139.5t-33 -142.5t-23 -128t-8.5 -94q0 -14 0.5 -28t2.5 -25t6 -18t11 -6q23 2 43.5 20
t46.5 44zM564 346q35 51 67.5 106.5t60 109.5t50 105t37.5 93q-7 28 -23 48.5t-36.5 33.5t-43.5 19t-44 6q-37 0 -73 -27.5t-69 -73.5t-61 -106.5t-48.5 -126.5t-32 -133t-11.5 -127q3 -49 17.5 -72.5t43.5 -23.5t70.5 44t95.5 125zM1075 1173q-13 -16 -28 -24.5
t-28.5 -12.5t-23 -4.5t-12.5 -0.5q-15 0 -38.5 11t-51.5 30.5t-58 46t-59 58.5q-43 -32 -87 -59t-83 -46.5t-71.5 -30t-53.5 -10.5q-18 0 -36 6t-18 22q23 20 48 41q21 18 47 40.5t51 43.5q43 38 83.5 70t76 54.5t64 35t49.5 12.5q12 0 24 -2.5t20 -8.5q10 -29 30 -65
t44.5 -73t53 -72t57.5 -62zM1198 1691q-5 -42 -22 -79t-40 -64q-25 -29 -54.5 -44.5t-64.5 -15.5t-75 17.5t-89 45.5q-43 25 -74 39.5t-52 14.5q-7 0 -12 -2q-19 -5 -33.5 -27t-23.5 -59l-8 -15q-1 -1 -1 -4q0 -1 -2 -7v1q-4 -11 -16 -11q-8 0 -17 5t-16 9q-14 12 -18 18.5
t-4 18.5q0 11 1.5 20l3.5 21q15 79 57 128q26 28 54 39.5t60 11.5q34 2 77 -17.5t89 -44.5q38 -20 74 -35.5t57 -15.5q1 0 9 2q18 4 33.5 30.5t23.5 58.5q0 1 0.5 2t0.5 3q2 3 3 9t3 12q8 8 17 8q6 0 16 -5v1q25 -12 34 -27.5t9 -39.5v-2z" />
    <glyph glyph-name=".notdef.117" unicode="&#x1eac;" 
d="M229 5q-42 -14 -84.5 -22.5t-87.5 -8.5q-94 0 -94 65q0 20 7 43t23 53q50 92 108 193t120.5 208t128 217t131.5 220q54 92 115.5 193.5t124.5 215.5q50 38 108.5 54t121.5 9q77 -9 83 -131v-70t2 -83q0 -47 2.5 -87t2.5 -75q1 -16 3.5 -53t5 -84.5t5.5 -99.5t5.5 -99
t4 -83t2.5 -51q6 -88 15.5 -166t23.5 -142q14 -65 34 -111t52 -75q-50 -35 -107.5 -50.5t-120.5 -10.5q-49 4 -80 46t-43 135q-14 76 -18.5 150.5t-11.5 151.5q-21 -17 -42.5 -21.5t-42.5 -4.5q-76 -3 -150 -4t-149 -1q-37 -20 -54.5 -39.5t-31.5 -45.5q-20 -28 -40.5 -70.5
t-36.5 -77.5q-19 -44 -32.5 -92t-2.5 -96zM760 582q14 0 24 2t21 4q0 38 -1.5 87t-3 103t-4 110.5t-5.5 109.5t-6 100.5t-6 83.5q-32 -59 -69 -127.5t-78 -144.5t-85 -158.5t-90 -169.5h303zM1209 1564q-13 -16 -28 -24.5t-28.5 -12.5t-23 -4.5t-12.5 -0.5q-15 0 -38.5 11
t-51.5 30.5t-58 46t-59 58.5q-43 -32 -87 -59t-83 -46.5t-71.5 -30t-53.5 -10.5q-18 0 -36 6t-18 22q23 20 48 41q21 18 47 40.5t51 43.5q43 38 83.5 70t76 54.5t64 35t49.5 12.5q12 0 24 -2.5t20 -8.5q10 -29 30 -65t44.5 -73t53 -72t57.5 -62zM608 -175q0 -22 -7 -49
t-19 -59q-29 -15 -60 -24t-59 -9q-38 0 -58.5 15.5t-23.5 43.5v23q5 31 10 55t5 38v9t-1 9q61 32 116 32q47 0 72 -22t25 -62z" />
    <glyph glyph-name=".notdef.056" unicode="&#x1ead;" horiz-adv-x="1066" 
d="M1041 245q44 48 71.5 70t41.5 22q9 0 9 -17q0 -33 -15 -71t-40.5 -75t-58.5 -71t-69.5 -60t-73.5 -41.5t-69 -15.5q-77 0 -120.5 47.5t-43.5 147.5q0 16 0.5 36t2 40.5t3 39.5t3.5 33q-104 -170 -203.5 -256t-191.5 -90h-20q-55 0 -93 19t-61.5 53.5t-34 82t-10.5 104.5
q2 89 25.5 180t63.5 175.5t94.5 158.5t118.5 129t135.5 86.5t145.5 31.5q54 0 99 -11.5t82 -39.5q21 24 51 36t65 12q42 0 82.5 -11.5t80.5 -32.5q-17 -25 -37 -77t-40 -118t-38.5 -139.5t-33 -142.5t-23 -128t-8.5 -94q0 -14 0.5 -28t2.5 -25t6 -18t11 -6q23 2 43.5 20
t46.5 44zM564 346q35 51 67.5 106.5t60 109.5t50 105t37.5 93q-7 28 -23 48.5t-36.5 33.5t-43.5 19t-44 6q-37 0 -73 -27.5t-69 -73.5t-61 -106.5t-48.5 -126.5t-32 -133t-11.5 -127q3 -49 17.5 -72.5t43.5 -23.5t70.5 44t95.5 125zM1075 1173q-13 -16 -28 -24.5
t-28.5 -12.5t-23 -4.5t-12.5 -0.5q-15 0 -38.5 11t-51.5 30.5t-58 46t-59 58.5q-43 -32 -87 -59t-83 -46.5t-71.5 -30t-53.5 -10.5q-18 0 -36 6t-18 22q23 20 48 41q21 18 47 40.5t51 43.5q43 38 83.5 70t76 54.5t64 35t49.5 12.5q12 0 24 -2.5t20 -8.5q10 -29 30 -65
t44.5 -73t53 -72t57.5 -62zM608 -174q0 -22 -7 -49t-19 -59q-29 -15 -60 -24t-59 -9q-38 0 -58.5 15.5t-23.5 43.5v23q5 31 10 55t5 38v9t-1 9q61 32 116 32q47 0 72 -22t25 -62z" />
    <glyph glyph-name=".notdef.120" unicode="&#x1eae;" 
d="M229 5q-42 -14 -84.5 -22.5t-87.5 -8.5q-94 0 -94 65q0 20 7 43t23 53q50 92 108 193t120.5 208t128 217t131.5 220q54 92 115.5 193.5t124.5 215.5q50 38 108.5 54t121.5 9q77 -9 83 -131v-70t2 -83q0 -47 2.5 -87t2.5 -75q1 -16 3.5 -53t5 -84.5t5.5 -99.5t5.5 -99
t4 -83t2.5 -51q6 -88 15.5 -166t23.5 -142q14 -65 34 -111t52 -75q-50 -35 -107.5 -50.5t-120.5 -10.5q-49 4 -80 46t-43 135q-14 76 -18.5 150.5t-11.5 151.5q-21 -17 -42.5 -21.5t-42.5 -4.5q-76 -3 -150 -4t-149 -1q-37 -20 -54.5 -39.5t-31.5 -45.5q-20 -28 -40.5 -70.5
t-36.5 -77.5q-19 -44 -32.5 -92t-2.5 -96zM760 582q14 0 24 2t21 4q0 38 -1.5 87t-3 103t-4 110.5t-5.5 109.5t-6 100.5t-6 83.5q-32 -59 -69 -127.5t-78 -144.5t-85 -158.5t-90 -169.5h303zM1225 1761q-12 -50 -46 -93.5t-79 -75.5t-95.5 -50.5t-96.5 -18.5q-57 0 -101 14
t-75 38.5t-49 59t-23 76.5q0 15 4 33t12 34t21.5 26.5t32.5 10.5q11 0 14 -2q17 -64 58.5 -99.5t121.5 -35.5q88 0 141 35t82 99q4 1 8 1h8q34 0 48 -16.5t14 -35.5zM1244 1923q-28 -16 -65 -32t-78 -30.5t-85 -27t-87 -19.5q-5 -2 -18 -2q-6 0 -16 2.5t-19.5 7t-16 11
t-6.5 13.5q0 9 12 18q23 15 50 33t56 39q48 37 90 79t71 86q6 9 9 16t8 12h27q32 0 58 -2t45 -10q38 -16 57.5 -38t19.5 -43q0 -13 -5 -19q-16 -51 -107 -94z" />
    <glyph glyph-name=".notdef.053" unicode="&#x1eaf;" horiz-adv-x="1066" 
d="M1041 245q44 48 71.5 70t41.5 22q9 0 9 -17q0 -33 -15 -71t-40.5 -75t-58.5 -71t-69.5 -60t-73.5 -41.5t-69 -15.5q-77 0 -120.5 47.5t-43.5 147.5q0 16 0.5 36t2 40.5t3 39.5t3.5 33q-104 -170 -203.5 -256t-191.5 -90h-20q-55 0 -93 19t-61.5 53.5t-34 82t-10.5 104.5
q2 89 25.5 180t63.5 175.5t94.5 158.5t118.5 129t135.5 86.5t145.5 31.5q54 0 99 -11.5t82 -39.5q21 24 51 36t65 12q42 0 82.5 -11.5t80.5 -32.5q-17 -25 -37 -77t-40 -118t-38.5 -139.5t-33 -142.5t-23 -128t-8.5 -94q0 -14 0.5 -28t2.5 -25t6 -18t11 -6q23 2 43.5 20
t46.5 44zM564 346q35 51 67.5 106.5t60 109.5t50 105t37.5 93q-7 28 -23 48.5t-36.5 33.5t-43.5 19t-44 6q-37 0 -73 -27.5t-69 -73.5t-61 -106.5t-48.5 -126.5t-32 -133t-11.5 -127q3 -49 17.5 -72.5t43.5 -23.5t70.5 44t95.5 125zM1107 1364q-12 -50 -46 -93.5t-79 -75.5
t-95.5 -50.5t-96.5 -18.5q-57 0 -101 14t-75 38.5t-49 59t-23 76.5q0 15 4 33t12 34t21.5 26.5t32.5 10.5q11 0 14 -2q17 -64 58.5 -99.5t121.5 -35.5q88 0 141 35t82 99q4 1 8 1h8q34 0 48 -16.5t14 -35.5zM739 1458q0 11 12 19q51 32 91 64t74 64t62.5 66t56.5 71
q106 0 157 -26t51 -68q0 -26 -29 -56.5t-85 -56.5q-28 -16 -64.5 -32t-77.5 -30.5t-84.5 -26.5t-86.5 -20q-11 -2 -24.5 -0.5t-25 6t-19.5 11.5t-8 15z" />
    <glyph glyph-name=".notdef.119" unicode="&#x1eb0;" 
d="M229 5q-42 -14 -84.5 -22.5t-87.5 -8.5q-94 0 -94 65q0 20 7 43t23 53q50 92 108 193t120.5 208t128 217t131.5 220q54 92 115.5 193.5t124.5 215.5q50 38 108.5 54t121.5 9q77 -9 83 -131v-70t2 -83q0 -47 2.5 -87t2.5 -75q1 -16 3.5 -53t5 -84.5t5.5 -99.5t5.5 -99
t4 -83t2.5 -51q6 -88 15.5 -166t23.5 -142q14 -65 34 -111t52 -75q-50 -35 -107.5 -50.5t-120.5 -10.5q-49 4 -80 46t-43 135q-14 76 -18.5 150.5t-11.5 151.5q-21 -17 -42.5 -21.5t-42.5 -4.5q-76 -3 -150 -4t-149 -1q-37 -20 -54.5 -39.5t-31.5 -45.5q-20 -28 -40.5 -70.5
t-36.5 -77.5q-19 -44 -32.5 -92t-2.5 -96zM760 582q14 0 24 2t21 4q0 38 -1.5 87t-3 103t-4 110.5t-5.5 109.5t-6 100.5t-6 83.5q-32 -59 -69 -127.5t-78 -144.5t-85 -158.5t-90 -169.5h303zM1225 1761q-12 -50 -46 -93.5t-79 -75.5t-95.5 -50.5t-96.5 -18.5q-57 0 -101 14
t-75 38.5t-49 59t-23 76.5q0 15 4 33t12 34t21.5 26.5t32.5 10.5q11 0 14 -2q17 -64 58.5 -99.5t121.5 -35.5q88 0 141 35t82 99q4 1 8 1h8q34 0 48 -16.5t14 -35.5zM1049 1853q0 -8 -8.5 -14.5t-20.5 -11t-26 -6t-24 0.5q-84 16 -159 42.5t-131 57t-89 62.5t-33 59
q0 18 18.5 38t49 36t69.5 23.5t81 1.5q18 -26 35 -52t35.5 -50.5t40.5 -49t49 -47.5q15 -12 35 -25t37 -26t29 -23t12 -16z" />
    <glyph glyph-name=".notdef.054" unicode="&#x1eb1;" horiz-adv-x="1066" 
d="M1041 245q44 48 71.5 70t41.5 22q9 0 9 -17q0 -33 -15 -71t-40.5 -75t-58.5 -71t-69.5 -60t-73.5 -41.5t-69 -15.5q-77 0 -120.5 47.5t-43.5 147.5q0 16 0.5 36t2 40.5t3 39.5t3.5 33q-104 -170 -203.5 -256t-191.5 -90h-20q-55 0 -93 19t-61.5 53.5t-34 82t-10.5 104.5
q2 89 25.5 180t63.5 175.5t94.5 158.5t118.5 129t135.5 86.5t145.5 31.5q54 0 99 -11.5t82 -39.5q21 24 51 36t65 12q42 0 82.5 -11.5t80.5 -32.5q-17 -25 -37 -77t-40 -118t-38.5 -139.5t-33 -142.5t-23 -128t-8.5 -94q0 -14 0.5 -28t2.5 -25t6 -18t11 -6q23 2 43.5 20
t46.5 44zM564 346q35 51 67.5 106.5t60 109.5t50 105t37.5 93q-7 28 -23 48.5t-36.5 33.5t-43.5 19t-44 6q-37 0 -73 -27.5t-69 -73.5t-61 -106.5t-48.5 -126.5t-32 -133t-11.5 -127q3 -49 17.5 -72.5t43.5 -23.5t70.5 44t95.5 125zM1107 1364q-12 -50 -46 -93.5t-79 -75.5
t-95.5 -50.5t-96.5 -18.5q-57 0 -101 14t-75 38.5t-49 59t-23 76.5q0 15 4 33t12 34t21.5 26.5t32.5 10.5q11 0 14 -2q17 -64 58.5 -99.5t121.5 -35.5q88 0 141 35t82 99q4 1 8 1h8q34 0 48 -16.5t14 -35.5zM940 1460q0 -8 -8.5 -15t-20.5 -11.5t-25.5 -6t-24.5 0.5
q-84 17 -158.5 43.5t-130.5 57t-89 62t-33 59.5q0 18 18.5 38t49 36t69.5 24t81 2q18 -26 34.5 -52t35.5 -51t40.5 -49.5t49.5 -46.5q15 -12 34.5 -25.5t36.5 -26.5t29 -23t12 -16z" />
    <glyph glyph-name=".notdef.121" unicode="&#x1eb2;" 
d="M229 5q-42 -14 -84.5 -22.5t-87.5 -8.5q-94 0 -94 65q0 20 7 43t23 53q50 92 108 193t120.5 208t128 217t131.5 220q54 92 115.5 193.5t124.5 215.5q50 38 108.5 54t121.5 9q77 -9 83 -131v-70t2 -83q0 -47 2.5 -87t2.5 -75q1 -16 3.5 -53t5 -84.5t5.5 -99.5t5.5 -99
t4 -83t2.5 -51q6 -88 15.5 -166t23.5 -142q14 -65 34 -111t52 -75q-50 -35 -107.5 -50.5t-120.5 -10.5q-49 4 -80 46t-43 135q-14 76 -18.5 150.5t-11.5 151.5q-21 -17 -42.5 -21.5t-42.5 -4.5q-76 -3 -150 -4t-149 -1q-37 -20 -54.5 -39.5t-31.5 -45.5q-20 -28 -40.5 -70.5
t-36.5 -77.5q-19 -44 -32.5 -92t-2.5 -96zM760 582q14 0 24 2t21 4q0 38 -1.5 87t-3 103t-4 110.5t-5.5 109.5t-6 100.5t-6 83.5q-32 -59 -69 -127.5t-78 -144.5t-85 -158.5t-90 -169.5h303zM1225 1761q-12 -50 -46 -93.5t-79 -75.5t-95.5 -50.5t-96.5 -18.5q-57 0 -101 14
t-75 38.5t-49 59t-23 76.5q0 15 4 33t12 34t21.5 26.5t32.5 10.5q11 0 14 -2q17 -64 58.5 -99.5t121.5 -35.5q88 0 141 35t82 99q4 1 8 1h8q34 0 48 -16.5t14 -35.5zM1016 2196q42 0 79 -8.5t65 -24t45 -38t20 -50.5q1 -11 0 -23t-5.5 -25.5t-15 -27t-28.5 -26.5
q-9 -6 -30.5 -15t-45.5 -23h2q-27 -18 -49 -39.5t-19 -52.5q1 -11 -9 -17t-24 -9t-27.5 -3.5t-19.5 -0.5q-14 0 -31.5 7t-31.5 19t-21 28t0 35q19 21 46.5 36.5t54 32.5t47.5 38.5t27 54.5q-1 14 -6 23t-11.5 14t-13.5 7t-13 2q-8 0 -19 -4t-16 -19q-5 -8 -24 -16.5
t-63 -13.5q-18 4 -29 10.5t-17 13t-8 12t-2 8.5q-2 19 13.5 36.5t42 30.5t62 20.5t75.5 7.5z" />
    <glyph glyph-name=".notdef.052" unicode="&#x1eb3;" horiz-adv-x="1066" 
d="M1041 245q44 48 71.5 70t41.5 22q9 0 9 -17q0 -33 -15 -71t-40.5 -75t-58.5 -71t-69.5 -60t-73.5 -41.5t-69 -15.5q-77 0 -120.5 47.5t-43.5 147.5q0 16 0.5 36t2 40.5t3 39.5t3.5 33q-104 -170 -203.5 -256t-191.5 -90h-20q-55 0 -93 19t-61.5 53.5t-34 82t-10.5 104.5
q2 89 25.5 180t63.5 175.5t94.5 158.5t118.5 129t135.5 86.5t145.5 31.5q54 0 99 -11.5t82 -39.5q21 24 51 36t65 12q42 0 82.5 -11.5t80.5 -32.5q-17 -25 -37 -77t-40 -118t-38.5 -139.5t-33 -142.5t-23 -128t-8.5 -94q0 -14 0.5 -28t2.5 -25t6 -18t11 -6q23 2 43.5 20
t46.5 44zM564 346q35 51 67.5 106.5t60 109.5t50 105t37.5 93q-7 28 -23 48.5t-36.5 33.5t-43.5 19t-44 6q-37 0 -73 -27.5t-69 -73.5t-61 -106.5t-48.5 -126.5t-32 -133t-11.5 -127q3 -49 17.5 -72.5t43.5 -23.5t70.5 44t95.5 125zM1107 1364q-12 -50 -46 -93.5t-79 -75.5
t-95.5 -50.5t-96.5 -18.5q-57 0 -101 14t-75 38.5t-49 59t-23 76.5q0 15 4 33t12 34t21.5 26.5t32.5 10.5q11 0 14 -2q17 -64 58.5 -99.5t121.5 -35.5q88 0 141 35t82 99q4 1 8 1h8q34 0 48 -16.5t14 -35.5zM885 1797q42 0 79 -8.5t65 -24t45 -38t20 -50.5q1 -11 0 -23
t-5.5 -25.5t-15 -27t-28.5 -26.5q-9 -6 -30.5 -15t-45.5 -23h2q-27 -18 -49 -39.5t-19 -52.5q1 -11 -9 -17t-24 -9t-27.5 -3.5t-19.5 -0.5q-14 0 -31.5 7t-31.5 19t-21 28t0 35q19 21 46.5 36.5t54 32.5t47.5 38.5t27 54.5q-1 14 -6 23t-11.5 14t-13.5 7t-13 2q-8 0 -19 -4
t-16 -19q-5 -8 -24 -16.5t-63 -13.5q-18 4 -29 10.5t-17 13t-8 12t-2 8.5q-2 19 13.5 36.5t42 30.5t62 20.5t75.5 7.5z" />
    <glyph glyph-name=".notdef.122" unicode="&#x1eb4;" 
d="M229 5q-42 -14 -84.5 -22.5t-87.5 -8.5q-94 0 -94 65q0 20 7 43t23 53q50 92 108 193t120.5 208t128 217t131.5 220q54 92 115.5 193.5t124.5 215.5q50 38 108.5 54t121.5 9q77 -9 83 -131v-70t2 -83q0 -47 2.5 -87t2.5 -75q1 -16 3.5 -53t5 -84.5t5.5 -99.5t5.5 -99
t4 -83t2.5 -51q6 -88 15.5 -166t23.5 -142q14 -65 34 -111t52 -75q-50 -35 -107.5 -50.5t-120.5 -10.5q-49 4 -80 46t-43 135q-14 76 -18.5 150.5t-11.5 151.5q-21 -17 -42.5 -21.5t-42.5 -4.5q-76 -3 -150 -4t-149 -1q-37 -20 -54.5 -39.5t-31.5 -45.5q-20 -28 -40.5 -70.5
t-36.5 -77.5q-19 -44 -32.5 -92t-2.5 -96zM760 582q14 0 24 2t21 4q0 38 -1.5 87t-3 103t-4 110.5t-5.5 109.5t-6 100.5t-6 83.5q-32 -59 -69 -127.5t-78 -144.5t-85 -158.5t-90 -169.5h303zM1225 1761q-12 -50 -46 -93.5t-79 -75.5t-95.5 -50.5t-96.5 -18.5q-57 0 -101 14
t-75 38.5t-49 59t-23 76.5q0 15 4 33t12 34t21.5 26.5t32.5 10.5q11 0 14 -2q17 -64 58.5 -99.5t121.5 -35.5q88 0 141 35t82 99q4 1 8 1h8q34 0 48 -16.5t14 -35.5zM1292 2076q-5 -42 -22 -79t-40 -64q-25 -29 -54.5 -44.5t-64.5 -15.5t-75 17.5t-89 45.5q-43 25 -74 39.5
t-52 14.5q-7 0 -12 -2q-19 -5 -33.5 -27t-23.5 -59l-8 -15q-1 -1 -1 -4q0 -1 -2 -7v1q-4 -11 -16 -11q-8 0 -17 5t-16 9q-14 12 -18 18.5t-4 18.5q0 11 1.5 20l3.5 21q15 79 57 128q26 28 54 39.5t60 11.5q34 2 77 -17.5t89 -44.5q38 -20 74 -35.5t57 -15.5q1 0 9 2
q18 4 33.5 30.5t23.5 58.5q0 1 0.5 2t0.5 3q2 3 3 9t3 12q8 8 17 8q6 0 16 -5v1q25 -12 34 -27.5t9 -39.5v-2z" />
    <glyph glyph-name=".notdef.051" unicode="&#x1eb5;" horiz-adv-x="1066" 
d="M1041 245q44 48 71.5 70t41.5 22q9 0 9 -17q0 -33 -15 -71t-40.5 -75t-58.5 -71t-69.5 -60t-73.5 -41.5t-69 -15.5q-77 0 -120.5 47.5t-43.5 147.5q0 16 0.5 36t2 40.5t3 39.5t3.5 33q-104 -170 -203.5 -256t-191.5 -90h-20q-55 0 -93 19t-61.5 53.5t-34 82t-10.5 104.5
q2 89 25.5 180t63.5 175.5t94.5 158.5t118.5 129t135.5 86.5t145.5 31.5q54 0 99 -11.5t82 -39.5q21 24 51 36t65 12q42 0 82.5 -11.5t80.5 -32.5q-17 -25 -37 -77t-40 -118t-38.5 -139.5t-33 -142.5t-23 -128t-8.5 -94q0 -14 0.5 -28t2.5 -25t6 -18t11 -6q23 2 43.5 20
t46.5 44zM564 346q35 51 67.5 106.5t60 109.5t50 105t37.5 93q-7 28 -23 48.5t-36.5 33.5t-43.5 19t-44 6q-37 0 -73 -27.5t-69 -73.5t-61 -106.5t-48.5 -126.5t-32 -133t-11.5 -127q3 -49 17.5 -72.5t43.5 -23.5t70.5 44t95.5 125zM1107 1364q-12 -50 -46 -93.5t-79 -75.5
t-95.5 -50.5t-96.5 -18.5q-57 0 -101 14t-75 38.5t-49 59t-23 76.5q0 15 4 33t12 34t21.5 26.5t32.5 10.5q11 0 14 -2q17 -64 58.5 -99.5t121.5 -35.5q88 0 141 35t82 99q4 1 8 1h8q34 0 48 -16.5t14 -35.5zM1207 1678q-5 -42 -22 -79t-40 -64q-25 -29 -54.5 -44.5
t-64.5 -15.5t-75 17.5t-89 45.5q-43 25 -74 39.5t-52 14.5q-7 0 -12 -2q-19 -5 -33.5 -27t-23.5 -59l-8 -15q-1 -1 -1 -4q0 -1 -2 -7v1q-4 -11 -16 -11q-8 0 -17 5t-16 9q-14 12 -18 18.5t-4 18.5q0 11 1.5 20l3.5 21q15 79 57 128q26 28 54 39.5t60 11.5q34 2 77 -17.5
t89 -44.5q38 -20 74 -35.5t57 -15.5q1 0 9 2q18 4 33.5 30.5t23.5 58.5q0 1 0.5 2t0.5 3q2 3 3 9t3 12q8 8 17 8q6 0 16 -5v1q25 -12 34 -27.5t9 -39.5v-2z" />
    <glyph glyph-name=".notdef.123" unicode="&#x1eb6;" 
d="M229 5q-42 -14 -84.5 -22.5t-87.5 -8.5q-94 0 -94 65q0 20 7 43t23 53q50 92 108 193t120.5 208t128 217t131.5 220q54 92 115.5 193.5t124.5 215.5q50 38 108.5 54t121.5 9q77 -9 83 -131v-70t2 -83q0 -47 2.5 -87t2.5 -75q1 -16 3.5 -53t5 -84.5t5.5 -99.5t5.5 -99
t4 -83t2.5 -51q6 -88 15.5 -166t23.5 -142q14 -65 34 -111t52 -75q-50 -35 -107.5 -50.5t-120.5 -10.5q-49 4 -80 46t-43 135q-14 76 -18.5 150.5t-11.5 151.5q-21 -17 -42.5 -21.5t-42.5 -4.5q-76 -3 -150 -4t-149 -1q-37 -20 -54.5 -39.5t-31.5 -45.5q-20 -28 -40.5 -70.5
t-36.5 -77.5q-19 -44 -32.5 -92t-2.5 -96zM760 582q14 0 24 2t21 4q0 38 -1.5 87t-3 103t-4 110.5t-5.5 109.5t-6 100.5t-6 83.5q-32 -59 -69 -127.5t-78 -144.5t-85 -158.5t-90 -169.5h303zM1225 1761q-12 -50 -46 -93.5t-79 -75.5t-95.5 -50.5t-96.5 -18.5q-57 0 -101 14
t-75 38.5t-49 59t-23 76.5q0 15 4 33t12 34t21.5 26.5t32.5 10.5q11 0 14 -2q17 -64 58.5 -99.5t121.5 -35.5q88 0 141 35t82 99q4 1 8 1h8q34 0 48 -16.5t14 -35.5zM608 -175q0 -22 -7 -49t-19 -59q-29 -15 -60 -24t-59 -9q-38 0 -58.5 15.5t-23.5 43.5v23q5 31 10 55t5 38
v9t-1 9q61 32 116 32q47 0 72 -22t25 -62z" />
    <glyph glyph-name=".notdef.050" unicode="&#x1eb7;" horiz-adv-x="1066" 
d="M1041 245q44 48 71.5 70t41.5 22q9 0 9 -17q0 -33 -15 -71t-40.5 -75t-58.5 -71t-69.5 -60t-73.5 -41.5t-69 -15.5q-77 0 -120.5 47.5t-43.5 147.5q0 16 0.5 36t2 40.5t3 39.5t3.5 33q-104 -170 -203.5 -256t-191.5 -90h-20q-55 0 -93 19t-61.5 53.5t-34 82t-10.5 104.5
q2 89 25.5 180t63.5 175.5t94.5 158.5t118.5 129t135.5 86.5t145.5 31.5q54 0 99 -11.5t82 -39.5q21 24 51 36t65 12q42 0 82.5 -11.5t80.5 -32.5q-17 -25 -37 -77t-40 -118t-38.5 -139.5t-33 -142.5t-23 -128t-8.5 -94q0 -14 0.5 -28t2.5 -25t6 -18t11 -6q23 2 43.5 20
t46.5 44zM564 346q35 51 67.5 106.5t60 109.5t50 105t37.5 93q-7 28 -23 48.5t-36.5 33.5t-43.5 19t-44 6q-37 0 -73 -27.5t-69 -73.5t-61 -106.5t-48.5 -126.5t-32 -133t-11.5 -127q3 -49 17.5 -72.5t43.5 -23.5t70.5 44t95.5 125zM1107 1364q-12 -50 -46 -93.5t-79 -75.5
t-95.5 -50.5t-96.5 -18.5q-57 0 -101 14t-75 38.5t-49 59t-23 76.5q0 15 4 33t12 34t21.5 26.5t32.5 10.5q11 0 14 -2q17 -64 58.5 -99.5t121.5 -35.5q88 0 141 35t82 99q4 1 8 1h8q34 0 48 -16.5t14 -35.5zM608 -174q0 -22 -7 -49t-19 -59q-29 -15 -60 -24t-59 -9
q-38 0 -58.5 15.5t-23.5 43.5v23q5 31 10 55t5 38v9t-1 9q61 32 116 32q47 0 72 -22t25 -62z" />
    <glyph glyph-name=".notdef.128" unicode="&#x1eb8;" horiz-adv-x="994" 
d="M383 1397q117 11 233.5 16.5t234.5 5.5q56 0 106 3.5t88 3.5q28 0 48 -1.5t34.5 -5.5t25.5 -10t20 -16q-5 -33 -17 -67t-30.5 -62t-43.5 -45.5t-55 -17.5q-9 0 -20.5 7t-29.5 16t-43.5 16t-61.5 7h-68q-39 0 -74.5 2.5t-64.5 2.5h-81q13 -14 18 -28t5 -28
q0 -7 -0.5 -14.5t-3.5 -15.5q-17 -78 -36.5 -167t-42.5 -186h108q90 0 174 8.5t152 19.5q0 -11 -1 -21.5t-4 -23.5q-15 -55 -42.5 -86.5t-66 -47t-86.5 -19t-104 -3.5h-110h-55q-10 -30 -21.5 -72.5t-21.5 -88.5t-17 -92t-7 -83q0 -56 21 -84.5t52 -40t66.5 -12t64.5 -0.5
q70 0 131.5 12.5t110.5 27.5t84 27.5t52 12.5q0 -87 -33 -138.5t-93.5 -78.5t-145 -35t-187.5 -8q-65 0 -128.5 1t-126.5 1q-51 0 -82.5 12t-48 33.5t-22 52t-5.5 68.5q0 27 3.5 58.5t9.5 64.5t13.5 66t15.5 64q34 131 64.5 246t53 212t36 175.5t13.5 136.5v20.5t-0.5 19
t-2.5 13.5t-6 4q-18 -5 -34.5 -5.5t-24.5 -0.5q-9 3 -6 32q0 26 11 51q12 25 22.5 40.5t22 24.5t25.5 13.5t35 6.5zM622 -175q0 -22 -7 -49t-19 -59q-29 -15 -60 -24t-59 -9q-38 0 -58.5 15.5t-23.5 43.5v23q5 31 10 55t5 38v9t-1 9q61 32 116 32q47 0 72 -22t25 -62z" />
    <glyph glyph-name=".notdef.045" unicode="&#x1eb9;" horiz-adv-x="885" 
d="M545 127q99 10 177 51.5t150 111.5q19 -35 16.5 -74.5t-28.5 -71.5q-23 -29 -57.5 -54.5t-79.5 -45.5q-137 -62 -292 -62q-162 0 -251.5 70t-96.5 213q-3 71 7.5 141t33.5 136t59 126t84 111q94 112 208 169.5t239 57.5q116 0 172 -48.5t54 -143.5q0 -47 -29 -98.5
t-83 -102t-130 -95.5t-169 -78q-22 -8 -53 -21t-59 -29t-48 -34.5t-21 -36.5q-2 -34 3 -61.5t18 -45.5q30 -45 76.5 -68.5t99.5 -16.5zM385 527q-2 -10 -5 -22q-2 -11 -5.5 -26t-7.5 -34q12 25 28 43t35.5 32t42.5 26.5t49 26.5q44 24 73.5 48t48.5 47t29.5 47t17.5 48t6 46
t-9.5 38.5t-25 26t-41.5 9.5q-75 0 -135.5 -91.5t-100.5 -264.5zM531 -174q0 -22 -7 -49t-19 -59q-29 -15 -60 -24t-59 -9q-38 0 -58.5 15.5t-23.5 43.5v23q5 31 10 55t5 38v9t-1 9q61 32 116 32q47 0 72 -22t25 -62z" />
    <glyph glyph-name=".notdef.126" unicode="&#x1eba;" horiz-adv-x="994" 
d="M383 1397q117 11 233.5 16.5t234.5 5.5q56 0 106 3.5t88 3.5q28 0 48 -1.5t34.5 -5.5t25.5 -10t20 -16q-5 -33 -17 -67t-30.5 -62t-43.5 -45.5t-55 -17.5q-9 0 -20.5 7t-29.5 16t-43.5 16t-61.5 7h-68q-39 0 -74.5 2.5t-64.5 2.5h-81q13 -14 18 -28t5 -28
q0 -7 -0.5 -14.5t-3.5 -15.5q-17 -78 -36.5 -167t-42.5 -186h108q90 0 174 8.5t152 19.5q0 -11 -1 -21.5t-4 -23.5q-15 -55 -42.5 -86.5t-66 -47t-86.5 -19t-104 -3.5h-110h-55q-10 -30 -21.5 -72.5t-21.5 -88.5t-17 -92t-7 -83q0 -56 21 -84.5t52 -40t66.5 -12t64.5 -0.5
q70 0 131.5 12.5t110.5 27.5t84 27.5t52 12.5q0 -87 -33 -138.5t-93.5 -78.5t-145 -35t-187.5 -8q-65 0 -128.5 1t-126.5 1q-51 0 -82.5 12t-48 33.5t-22 52t-5.5 68.5q0 27 3.5 58.5t9.5 64.5t13.5 66t15.5 64q34 131 64.5 246t53 212t36 175.5t13.5 136.5v20.5t-0.5 19
t-2.5 13.5t-6 4q-18 -5 -34.5 -5.5t-24.5 -0.5q-9 3 -6 32q0 26 11 51q12 25 22.5 40.5t22 24.5t25.5 13.5t35 6.5zM844 1906q42 0 79 -8.5t65 -24t45 -38t20 -50.5q1 -11 0 -23t-5.5 -25.5t-15 -27t-28.5 -26.5q-9 -6 -30.5 -15t-45.5 -23h2q-27 -18 -49 -39.5t-19 -52.5
q1 -11 -9 -17t-24 -9t-27.5 -3.5t-19.5 -0.5q-14 0 -31.5 7t-31.5 19t-21 28t0 35q19 21 46.5 36.5t54 32.5t47.5 38.5t27 54.5q-1 14 -6 23t-11.5 14t-13.5 7t-13 2q-8 0 -19 -4t-16 -19q-5 -8 -24 -16.5t-63 -13.5q-18 4 -29 10.5t-17 13t-8 12t-2 8.5q-2 19 13.5 36.5
t42 30.5t62 20.5t75.5 7.5z" />
    <glyph glyph-name=".notdef.047" unicode="&#x1ebb;" horiz-adv-x="885" 
d="M545 127q99 10 177 51.5t150 111.5q19 -35 16.5 -74.5t-28.5 -71.5q-23 -29 -57.5 -54.5t-79.5 -45.5q-137 -62 -292 -62q-162 0 -251.5 70t-96.5 213q-3 71 7.5 141t33.5 136t59 126t84 111q94 112 208 169.5t239 57.5q116 0 172 -48.5t54 -143.5q0 -47 -29 -98.5
t-83 -102t-130 -95.5t-169 -78q-22 -8 -53 -21t-59 -29t-48 -34.5t-21 -36.5q-2 -34 3 -61.5t18 -45.5q30 -45 76.5 -68.5t99.5 -16.5zM385 527q-2 -10 -5 -22q-2 -11 -5.5 -26t-7.5 -34q12 25 28 43t35.5 32t42.5 26.5t49 26.5q44 24 73.5 48t48.5 47t29.5 47t17.5 48t6 46
t-9.5 38.5t-25 26t-41.5 9.5q-75 0 -135.5 -91.5t-100.5 -264.5zM770 1509q42 0 79 -8.5t65 -24t45 -38t20 -50.5q1 -11 0 -23t-5.5 -25.5t-15 -27t-28.5 -26.5q-9 -6 -30.5 -15t-45.5 -23h2q-27 -18 -49 -39.5t-19 -52.5q1 -11 -9 -17t-24 -9t-27.5 -3.5t-19.5 -0.5
q-14 0 -31.5 7t-31.5 19t-21 28t0 35q19 21 46.5 36.5t54 32.5t47.5 38.5t27 54.5q-1 14 -6 23t-11.5 14t-13.5 7t-13 2q-8 0 -19 -4t-16 -19q-5 -8 -24 -16.5t-63 -13.5q-18 4 -29 10.5t-17 13t-8 12t-2 8.5q-2 19 13.5 36.5t42 30.5t62 20.5t75.5 7.5z" />
    <glyph glyph-name=".notdef.127" unicode="&#x1ebc;" horiz-adv-x="994" 
d="M383 1397q117 11 233.5 16.5t234.5 5.5q56 0 106 3.5t88 3.5q28 0 48 -1.5t34.5 -5.5t25.5 -10t20 -16q-5 -33 -17 -67t-30.5 -62t-43.5 -45.5t-55 -17.5q-9 0 -20.5 7t-29.5 16t-43.5 16t-61.5 7h-68q-39 0 -74.5 2.5t-64.5 2.5h-81q13 -14 18 -28t5 -28
q0 -7 -0.5 -14.5t-3.5 -15.5q-17 -78 -36.5 -167t-42.5 -186h108q90 0 174 8.5t152 19.5q0 -11 -1 -21.5t-4 -23.5q-15 -55 -42.5 -86.5t-66 -47t-86.5 -19t-104 -3.5h-110h-55q-10 -30 -21.5 -72.5t-21.5 -88.5t-17 -92t-7 -83q0 -56 21 -84.5t52 -40t66.5 -12t64.5 -0.5
q70 0 131.5 12.5t110.5 27.5t84 27.5t52 12.5q0 -87 -33 -138.5t-93.5 -78.5t-145 -35t-187.5 -8q-65 0 -128.5 1t-126.5 1q-51 0 -82.5 12t-48 33.5t-22 52t-5.5 68.5q0 27 3.5 58.5t9.5 64.5t13.5 66t15.5 64q34 131 64.5 246t53 212t36 175.5t13.5 136.5v20.5t-0.5 19
t-2.5 13.5t-6 4q-18 -5 -34.5 -5.5t-24.5 -0.5q-9 3 -6 32q0 26 11 51q12 25 22.5 40.5t22 24.5t25.5 13.5t35 6.5zM1088 1720q-5 -42 -22 -79t-40 -64q-25 -29 -54.5 -44.5t-64.5 -15.5t-75 17.5t-89 45.5q-43 25 -74 39.5t-52 14.5q-7 0 -12 -2q-19 -5 -33.5 -27
t-23.5 -59l-8 -15q-1 -1 -1 -4q0 -1 -2 -7v1q-4 -11 -16 -11q-8 0 -17 5t-16 9q-14 12 -18 18.5t-4 18.5q0 11 1.5 20l3.5 21q15 79 57 128q26 28 54 39.5t60 11.5q34 2 77 -17.5t89 -44.5q38 -20 74 -35.5t57 -15.5q1 0 9 2q18 4 33.5 30.5t23.5 58.5q0 1 0.5 2t0.5 3
q2 3 3 9t3 12q8 8 17 8q6 0 16 -5v1q25 -12 34 -27.5t9 -39.5v-2z" />
    <glyph glyph-name=".notdef.046" unicode="&#x1ebd;" horiz-adv-x="885" 
d="M545 127q99 10 177 51.5t150 111.5q19 -35 16.5 -74.5t-28.5 -71.5q-23 -29 -57.5 -54.5t-79.5 -45.5q-137 -62 -292 -62q-162 0 -251.5 70t-96.5 213q-3 71 7.5 141t33.5 136t59 126t84 111q94 112 208 169.5t239 57.5q116 0 172 -48.5t54 -143.5q0 -47 -29 -98.5
t-83 -102t-130 -95.5t-169 -78q-22 -8 -53 -21t-59 -29t-48 -34.5t-21 -36.5q-2 -34 3 -61.5t18 -45.5q30 -45 76.5 -68.5t99.5 -16.5zM385 527q-2 -10 -5 -22q-2 -11 -5.5 -26t-7.5 -34q12 25 28 43t35.5 32t42.5 26.5t49 26.5q44 24 73.5 48t48.5 47t29.5 47t17.5 48t6 46
t-9.5 38.5t-25 26t-41.5 9.5q-75 0 -135.5 -91.5t-100.5 -264.5zM995 1328q-5 -42 -22 -79t-40 -64q-25 -29 -54.5 -44.5t-64.5 -15.5t-75 17.5t-89 45.5q-43 25 -74 39.5t-52 14.5q-7 0 -12 -2q-19 -5 -33.5 -27t-23.5 -59l-8 -15q-1 -1 -1 -4q0 -1 -2 -7v1q-4 -11 -16 -11
q-8 0 -17 5t-16 9q-14 12 -18 18.5t-4 18.5q0 11 1.5 20l3.5 21q15 79 57 128q26 28 54 39.5t60 11.5q34 2 77 -17.5t89 -44.5q38 -20 74 -35.5t57 -15.5q1 0 9 2q18 4 33.5 30.5t23.5 58.5q0 1 0.5 2t0.5 3q2 3 3 9t3 12q8 8 17 8q6 0 16 -5v1q25 -12 34 -27.5t9 -39.5v-2z
" />
    <glyph glyph-name=".notdef.131" unicode="&#x1ebe;" horiz-adv-x="1064" 
d="M383 1397q117 11 233.5 16.5t234.5 5.5q56 0 106 3.5t88 3.5q28 0 48 -1.5t34.5 -5.5t25.5 -10t20 -16q-5 -33 -17 -67t-30.5 -62t-43.5 -45.5t-55 -17.5q-9 0 -20.5 7t-29.5 16t-43.5 16t-61.5 7h-68q-39 0 -74.5 2.5t-64.5 2.5h-81q13 -14 18 -28t5 -28
q0 -7 -0.5 -14.5t-3.5 -15.5q-17 -78 -36.5 -167t-42.5 -186h108q90 0 174 8.5t152 19.5q0 -11 -1 -21.5t-4 -23.5q-15 -55 -42.5 -86.5t-66 -47t-86.5 -19t-104 -3.5h-110h-55q-10 -30 -21.5 -72.5t-21.5 -88.5t-17 -92t-7 -83q0 -56 21 -84.5t52 -40t66.5 -12t64.5 -0.5
q70 0 131.5 12.5t110.5 27.5t84 27.5t52 12.5q0 -87 -33 -138.5t-93.5 -78.5t-145 -35t-187.5 -8q-65 0 -128.5 1t-126.5 1q-51 0 -82.5 12t-48 33.5t-22 52t-5.5 68.5q0 27 3.5 58.5t9.5 64.5t13.5 66t15.5 64q34 131 64.5 246t53 212t36 175.5t13.5 136.5v20.5t-0.5 19
t-2.5 13.5t-6 4q-18 -5 -34.5 -5.5t-24.5 -0.5q-9 3 -6 32q0 26 11 51q12 25 22.5 40.5t22 24.5t25.5 13.5t35 6.5zM1067 1564q-13 -16 -28 -24.5t-28.5 -12.5t-23 -4.5t-12.5 -0.5q-15 0 -38.5 11t-51.5 30.5t-58 46t-59 58.5q-43 -32 -87 -59t-83 -46.5t-71.5 -30
t-53.5 -10.5q-18 0 -36 6t-18 22q23 20 48 41q21 18 47 40.5t51 43.5q43 38 83.5 70t76 54.5t64 35t49.5 12.5q12 0 24 -2.5t20 -8.5q10 -29 30 -65t44.5 -73t53 -72t57.5 -62zM1380 1826q-28 -16 -65 -32t-78 -30.5t-85 -27t-87 -19.5q-5 -2 -18 -2q-6 0 -16 2.5t-19.5 7
t-16 11t-6.5 13.5q0 9 12 18q23 15 50 33t56 39q48 37 90 79t71 86q6 9 9 16t8 12h27q32 0 58 -2t45 -10q38 -16 57.5 -38t19.5 -43q0 -13 -5 -19q-16 -51 -107 -94z" />
    <glyph glyph-name=".notdef.042" unicode="&#x1ebf;" horiz-adv-x="883" 
d="M545 127q99 10 177 51.5t150 111.5q19 -35 16.5 -74.5t-28.5 -71.5q-23 -29 -57.5 -54.5t-79.5 -45.5q-137 -62 -292 -62q-162 0 -251.5 70t-96.5 213q-3 71 7.5 141t33.5 136t59 126t84 111q94 112 208 169.5t239 57.5q116 0 172 -48.5t54 -143.5q0 -47 -29 -98.5
t-83 -102t-130 -95.5t-169 -78q-22 -8 -53 -21t-59 -29t-48 -34.5t-21 -36.5q-2 -34 3 -61.5t18 -45.5q30 -45 76.5 -68.5t99.5 -16.5zM385 527q-2 -10 -5 -22q-2 -11 -5.5 -26t-7.5 -34q12 25 28 43t35.5 32t42.5 26.5t49 26.5q44 24 73.5 48t48.5 47t29.5 47t17.5 48t6 46
t-9.5 38.5t-25 26t-41.5 9.5q-75 0 -135.5 -91.5t-100.5 -264.5zM983 1173q-13 -16 -28 -24.5t-28.5 -12.5t-23.5 -4.5t-13 -0.5q-15 0 -38 11t-51 30.5t-58 46t-59 58.5q-43 -32 -86.5 -59t-83 -46.5t-72 -30t-53.5 -10.5q-18 0 -35.5 6t-17.5 22q23 20 48 41
q21 18 46.5 40.5t50.5 43.5q44 38 84 70t75 54.5t64 35t50 12.5q12 0 24 -2.5t20 -8.5q10 -29 30 -65t44.5 -73t53 -72t57.5 -62zM895 1368q0 11 12 19q51 32 91 64t74 64t62.5 66t56.5 71q106 0 157 -26t51 -68q0 -26 -29 -56.5t-85 -56.5q-28 -16 -64.5 -32t-77.5 -30.5
t-84.5 -26.5t-86.5 -20q-11 -2 -24.5 -0.5t-25 6t-19.5 11.5t-8 15z" />
    <glyph glyph-name=".notdef.130" unicode="&#x1ec0;" horiz-adv-x="1064" 
d="M383 1397q117 11 233.5 16.5t234.5 5.5q56 0 106 3.5t88 3.5q28 0 48 -1.5t34.5 -5.5t25.5 -10t20 -16q-5 -33 -17 -67t-30.5 -62t-43.5 -45.5t-55 -17.5q-9 0 -20.5 7t-29.5 16t-43.5 16t-61.5 7h-68q-39 0 -74.5 2.5t-64.5 2.5h-81q13 -14 18 -28t5 -28
q0 -7 -0.5 -14.5t-3.5 -15.5q-17 -78 -36.5 -167t-42.5 -186h108q90 0 174 8.5t152 19.5q0 -11 -1 -21.5t-4 -23.5q-15 -55 -42.5 -86.5t-66 -47t-86.5 -19t-104 -3.5h-110h-55q-10 -30 -21.5 -72.5t-21.5 -88.5t-17 -92t-7 -83q0 -56 21 -84.5t52 -40t66.5 -12t64.5 -0.5
q70 0 131.5 12.5t110.5 27.5t84 27.5t52 12.5q0 -87 -33 -138.5t-93.5 -78.5t-145 -35t-187.5 -8q-65 0 -128.5 1t-126.5 1q-51 0 -82.5 12t-48 33.5t-22 52t-5.5 68.5q0 27 3.5 58.5t9.5 64.5t13.5 66t15.5 64q34 131 64.5 246t53 212t36 175.5t13.5 136.5v20.5t-0.5 19
t-2.5 13.5t-6 4q-18 -5 -34.5 -5.5t-24.5 -0.5q-9 3 -6 32q0 26 11 51q12 25 22.5 40.5t22 24.5t25.5 13.5t35 6.5zM1067 1564q-13 -16 -28 -24.5t-28.5 -12.5t-23 -4.5t-12.5 -0.5q-15 0 -38.5 11t-51.5 30.5t-58 46t-59 58.5q-43 -32 -87 -59t-83 -46.5t-71.5 -30
t-53.5 -10.5q-18 0 -36 6t-18 22q23 20 48 41q21 18 47 40.5t51 43.5q43 38 83.5 70t76 54.5t64 35t49.5 12.5q12 0 24 -2.5t20 -8.5q10 -29 30 -65t44.5 -73t53 -72t57.5 -62zM1400 1749q0 -8 -8.5 -14.5t-20.5 -11t-26 -6t-24 0.5q-84 16 -159 42.5t-131 57t-89 62.5
t-33 59q0 18 18.5 38t49 36t69.5 23.5t81 1.5q18 -26 35 -52t35.5 -50.5t40.5 -49t49 -47.5q15 -12 35 -25t37 -26t29 -23t12 -16z" />
    <glyph glyph-name=".notdef.043" unicode="&#x1ec1;" horiz-adv-x="883" 
d="M545 127q99 10 177 51.5t150 111.5q19 -35 16.5 -74.5t-28.5 -71.5q-23 -29 -57.5 -54.5t-79.5 -45.5q-137 -62 -292 -62q-162 0 -251.5 70t-96.5 213q-3 71 7.5 141t33.5 136t59 126t84 111q94 112 208 169.5t239 57.5q116 0 172 -48.5t54 -143.5q0 -47 -29 -98.5
t-83 -102t-130 -95.5t-169 -78q-22 -8 -53 -21t-59 -29t-48 -34.5t-21 -36.5q-2 -34 3 -61.5t18 -45.5q30 -45 76.5 -68.5t99.5 -16.5zM385 527q-2 -10 -5 -22q-2 -11 -5.5 -26t-7.5 -34q12 25 28 43t35.5 32t42.5 26.5t49 26.5q44 24 73.5 48t48.5 47t29.5 47t17.5 48t6 46
t-9.5 38.5t-25 26t-41.5 9.5q-75 0 -135.5 -91.5t-100.5 -264.5zM983 1173q-13 -16 -28 -24.5t-28.5 -12.5t-23.5 -4.5t-13 -0.5q-15 0 -38 11t-51 30.5t-58 46t-59 58.5q-43 -32 -86.5 -59t-83 -46.5t-72 -30t-53.5 -10.5q-18 0 -35.5 6t-17.5 22q23 20 48 41
q21 18 46.5 40.5t50.5 43.5q44 38 84 70t75 54.5t64 35t50 12.5q12 0 24 -2.5t20 -8.5q10 -29 30 -65t44.5 -73t53 -72t57.5 -62zM1287 1371q0 -8 -8.5 -15t-20.5 -11.5t-25.5 -6t-24.5 0.5q-84 17 -158.5 43.5t-130.5 57t-89 62t-33 59.5q0 18 18.5 38t49 36t69.5 24t81 2
q18 -26 34.5 -52t35.5 -51t40.5 -49.5t49.5 -46.5q15 -12 34.5 -25.5t36.5 -26.5t29 -23t12 -16z" />
    <glyph glyph-name=".notdef.132" unicode="&#x1ec2;" horiz-adv-x="1064" 
d="M383 1397q117 11 233.5 16.5t234.5 5.5q56 0 106 3.5t88 3.5q28 0 48 -1.5t34.5 -5.5t25.5 -10t20 -16q-5 -33 -17 -67t-30.5 -62t-43.5 -45.5t-55 -17.5q-9 0 -20.5 7t-29.5 16t-43.5 16t-61.5 7h-68q-39 0 -74.5 2.5t-64.5 2.5h-81q13 -14 18 -28t5 -28
q0 -7 -0.5 -14.5t-3.5 -15.5q-17 -78 -36.5 -167t-42.5 -186h108q90 0 174 8.5t152 19.5q0 -11 -1 -21.5t-4 -23.5q-15 -55 -42.5 -86.5t-66 -47t-86.5 -19t-104 -3.5h-110h-55q-10 -30 -21.5 -72.5t-21.5 -88.5t-17 -92t-7 -83q0 -56 21 -84.5t52 -40t66.5 -12t64.5 -0.5
q70 0 131.5 12.5t110.5 27.5t84 27.5t52 12.5q0 -87 -33 -138.5t-93.5 -78.5t-145 -35t-187.5 -8q-65 0 -128.5 1t-126.5 1q-51 0 -82.5 12t-48 33.5t-22 52t-5.5 68.5q0 27 3.5 58.5t9.5 64.5t13.5 66t15.5 64q34 131 64.5 246t53 212t36 175.5t13.5 136.5v20.5t-0.5 19
t-2.5 13.5t-6 4q-18 -5 -34.5 -5.5t-24.5 -0.5q-9 3 -6 32q0 26 11 51q12 25 22.5 40.5t22 24.5t25.5 13.5t35 6.5zM1067 1564q-13 -16 -28 -24.5t-28.5 -12.5t-23 -4.5t-12.5 -0.5q-15 0 -38.5 11t-51.5 30.5t-58 46t-59 58.5q-43 -32 -87 -59t-83 -46.5t-71.5 -30
t-53.5 -10.5q-18 0 -36 6t-18 22q23 20 48 41q21 18 47 40.5t51 43.5q43 38 83.5 70t76 54.5t64 35t49.5 12.5q12 0 24 -2.5t20 -8.5q10 -29 30 -65t44.5 -73t53 -72t57.5 -62zM1132 2097q42 0 79 -8.5t65 -24t45 -38t20 -50.5q1 -11 0 -23t-5.5 -25.5t-15 -27t-28.5 -26.5
q-9 -6 -30.5 -15t-45.5 -23h2q-27 -18 -49 -39.5t-19 -52.5q1 -11 -9 -17t-24 -9t-27.5 -3.5t-19.5 -0.5q-14 0 -31.5 7t-31.5 19t-21 28t0 35q19 21 46.5 36.5t54 32.5t47.5 38.5t27 54.5q-1 14 -6 23t-11.5 14t-13.5 7t-13 2q-8 0 -19 -4t-16 -19q-5 -8 -24 -16.5
t-63 -13.5q-18 4 -29 10.5t-17 13t-8 12t-2 8.5q-2 19 13.5 36.5t42 30.5t62 20.5t75.5 7.5z" />
    <glyph glyph-name=".notdef.041" unicode="&#x1ec3;" horiz-adv-x="883" 
d="M545 127q99 10 177 51.5t150 111.5q19 -35 16.5 -74.5t-28.5 -71.5q-23 -29 -57.5 -54.5t-79.5 -45.5q-137 -62 -292 -62q-162 0 -251.5 70t-96.5 213q-3 71 7.5 141t33.5 136t59 126t84 111q94 112 208 169.5t239 57.5q116 0 172 -48.5t54 -143.5q0 -47 -29 -98.5
t-83 -102t-130 -95.5t-169 -78q-22 -8 -53 -21t-59 -29t-48 -34.5t-21 -36.5q-2 -34 3 -61.5t18 -45.5q30 -45 76.5 -68.5t99.5 -16.5zM385 527q-2 -10 -5 -22q-2 -11 -5.5 -26t-7.5 -34q12 25 28 43t35.5 32t42.5 26.5t49 26.5q44 24 73.5 48t48.5 47t29.5 47t17.5 48t6 46
t-9.5 38.5t-25 26t-41.5 9.5q-75 0 -135.5 -91.5t-100.5 -264.5zM983 1173q-13 -16 -28 -24.5t-28.5 -12.5t-23.5 -4.5t-13 -0.5q-15 0 -38 11t-51 30.5t-58 46t-59 58.5q-43 -32 -86.5 -59t-83 -46.5t-72 -30t-53.5 -10.5q-18 0 -35.5 6t-17.5 22q23 20 48 41
q21 18 46.5 40.5t50.5 43.5q44 38 84 70t75 54.5t64 35t50 12.5q12 0 24 -2.5t20 -8.5q10 -29 30 -65t44.5 -73t53 -72t57.5 -62zM1040 1720q42 0 79 -8.5t65 -24t45 -38t20 -50.5q1 -11 0 -23t-5.5 -25.5t-15 -27t-28.5 -26.5q-9 -6 -30.5 -15t-45.5 -23h2
q-27 -18 -49 -39.5t-19 -52.5q1 -11 -9 -17t-24 -9t-27.5 -3.5t-19.5 -0.5q-14 0 -31.5 7t-31.5 19t-21 28t0 35q19 21 46.5 36.5t54 32.5t47.5 38.5t27 54.5q-1 14 -6 23t-11.5 14t-13.5 7t-13 2q-8 0 -19 -4t-16 -19q-5 -8 -24 -16.5t-63 -13.5q-18 4 -29 10.5t-17 13
t-8 12t-2 8.5q-2 19 13.5 36.5t42 30.5t62 20.5t75.5 7.5z" />
    <glyph glyph-name=".notdef.133" unicode="&#x1ec4;" horiz-adv-x="1064" 
d="M383 1397q117 11 233.5 16.5t234.5 5.5q56 0 106 3.5t88 3.5q28 0 48 -1.5t34.5 -5.5t25.5 -10t20 -16q-5 -33 -17 -67t-30.5 -62t-43.5 -45.5t-55 -17.5q-9 0 -20.5 7t-29.5 16t-43.5 16t-61.5 7h-68q-39 0 -74.5 2.5t-64.5 2.5h-81q13 -14 18 -28t5 -28
q0 -7 -0.5 -14.5t-3.5 -15.5q-17 -78 -36.5 -167t-42.5 -186h108q90 0 174 8.5t152 19.5q0 -11 -1 -21.5t-4 -23.5q-15 -55 -42.5 -86.5t-66 -47t-86.5 -19t-104 -3.5h-110h-55q-10 -30 -21.5 -72.5t-21.5 -88.5t-17 -92t-7 -83q0 -56 21 -84.5t52 -40t66.5 -12t64.5 -0.5
q70 0 131.5 12.5t110.5 27.5t84 27.5t52 12.5q0 -87 -33 -138.5t-93.5 -78.5t-145 -35t-187.5 -8q-65 0 -128.5 1t-126.5 1q-51 0 -82.5 12t-48 33.5t-22 52t-5.5 68.5q0 27 3.5 58.5t9.5 64.5t13.5 66t15.5 64q34 131 64.5 246t53 212t36 175.5t13.5 136.5v20.5t-0.5 19
t-2.5 13.5t-6 4q-18 -5 -34.5 -5.5t-24.5 -0.5q-9 3 -6 32q0 26 11 51q12 25 22.5 40.5t22 24.5t25.5 13.5t35 6.5zM1067 1564q-13 -16 -28 -24.5t-28.5 -12.5t-23 -4.5t-12.5 -0.5q-15 0 -38.5 11t-51.5 30.5t-58 46t-59 58.5q-43 -32 -87 -59t-83 -46.5t-71.5 -30
t-53.5 -10.5q-18 0 -36 6t-18 22q23 20 48 41q21 18 47 40.5t51 43.5q43 38 83.5 70t76 54.5t64 35t49.5 12.5q12 0 24 -2.5t20 -8.5q10 -29 30 -65t44.5 -73t53 -72t57.5 -62zM1191 2082q-5 -42 -22 -79t-40 -64q-25 -29 -54.5 -44.5t-64.5 -15.5t-75 17.5t-89 45.5
q-43 25 -74 39.5t-52 14.5q-7 0 -12 -2q-19 -5 -33.5 -27t-23.5 -59l-8 -15q-1 -1 -1 -4q0 -1 -2 -7v1q-4 -11 -16 -11q-8 0 -17 5t-16 9q-14 12 -18 18.5t-4 18.5q0 11 1.5 20l3.5 21q15 79 57 128q26 28 54 39.5t60 11.5q34 2 77 -17.5t89 -44.5q38 -20 74 -35.5t57 -15.5
q1 0 9 2q18 4 33.5 30.5t23.5 58.5q0 1 0.5 2t0.5 3q2 3 3 9t3 12q8 8 17 8q6 0 16 -5v1q25 -12 34 -27.5t9 -39.5v-2z" />
    <glyph glyph-name=".notdef.040" unicode="&#x1ec5;" horiz-adv-x="883" 
d="M545 127q99 10 177 51.5t150 111.5q19 -35 16.5 -74.5t-28.5 -71.5q-23 -29 -57.5 -54.5t-79.5 -45.5q-137 -62 -292 -62q-162 0 -251.5 70t-96.5 213q-3 71 7.5 141t33.5 136t59 126t84 111q94 112 208 169.5t239 57.5q116 0 172 -48.5t54 -143.5q0 -47 -29 -98.5
t-83 -102t-130 -95.5t-169 -78q-22 -8 -53 -21t-59 -29t-48 -34.5t-21 -36.5q-2 -34 3 -61.5t18 -45.5q30 -45 76.5 -68.5t99.5 -16.5zM385 527q-2 -10 -5 -22q-2 -11 -5.5 -26t-7.5 -34q12 25 28 43t35.5 32t42.5 26.5t49 26.5q44 24 73.5 48t48.5 47t29.5 47t17.5 48t6 46
t-9.5 38.5t-25 26t-41.5 9.5q-75 0 -135.5 -91.5t-100.5 -264.5zM983 1173q-13 -16 -28 -24.5t-28.5 -12.5t-23.5 -4.5t-13 -0.5q-15 0 -38 11t-51 30.5t-58 46t-59 58.5q-43 -32 -86.5 -59t-83 -46.5t-72 -30t-53.5 -10.5q-18 0 -35.5 6t-17.5 22q23 20 48 41
q21 18 46.5 40.5t50.5 43.5q44 38 84 70t75 54.5t64 35t50 12.5q12 0 24 -2.5t20 -8.5q10 -29 30 -65t44.5 -73t53 -72t57.5 -62zM1105 1691q-5 -42 -22 -79t-40 -64q-25 -29 -54.5 -44.5t-64.5 -15.5t-75 17.5t-89 45.5q-43 25 -74 39.5t-52 14.5q-7 0 -12 -2
q-19 -5 -33.5 -27t-23.5 -59l-8 -15q-1 -1 -1 -4q0 -1 -2 -7v1q-4 -11 -16 -11q-8 0 -17 5t-16 9q-14 12 -18 18.5t-4 18.5q0 11 1.5 20l3.5 21q15 79 57 128q26 28 54 39.5t60 11.5q34 2 77 -17.5t89 -44.5q38 -20 74 -35.5t57 -15.5q1 0 9 2q18 4 33.5 30.5t23.5 58.5
q0 1 0.5 2t0.5 3q2 3 3 9t3 12q8 8 17 8q6 0 16 -5v1q25 -12 34 -27.5t9 -39.5v-2z" />
    <glyph glyph-name=".notdef.106" unicode="&#x1ec6;" horiz-adv-x="1064" 
d="M383 1397q117 11 233.5 16.5t234.5 5.5q56 0 106 3.5t88 3.5q28 0 48 -1.5t34.5 -5.5t25.5 -10t20 -16q-5 -33 -17 -67t-30.5 -62t-43.5 -45.5t-55 -17.5q-9 0 -20.5 7t-29.5 16t-43.5 16t-61.5 7h-68q-39 0 -74.5 2.5t-64.5 2.5h-81q13 -14 18 -28t5 -28
q0 -7 -0.5 -14.5t-3.5 -15.5q-17 -78 -36.5 -167t-42.5 -186h108q90 0 174 8.5t152 19.5q0 -11 -1 -21.5t-4 -23.5q-15 -55 -42.5 -86.5t-66 -47t-86.5 -19t-104 -3.5h-110h-55q-10 -30 -21.5 -72.5t-21.5 -88.5t-17 -92t-7 -83q0 -56 21 -84.5t52 -40t66.5 -12t64.5 -0.5
q70 0 131.5 12.5t110.5 27.5t84 27.5t52 12.5q0 -87 -33 -138.5t-93.5 -78.5t-145 -35t-187.5 -8q-65 0 -128.5 1t-126.5 1q-51 0 -82.5 12t-48 33.5t-22 52t-5.5 68.5q0 27 3.5 58.5t9.5 64.5t13.5 66t15.5 64q34 131 64.5 246t53 212t36 175.5t13.5 136.5v20.5t-0.5 19
t-2.5 13.5t-6 4q-18 -5 -34.5 -5.5t-24.5 -0.5q-9 3 -6 32q0 26 11 51q12 25 22.5 40.5t22 24.5t25.5 13.5t35 6.5zM1067 1564q-13 -16 -28 -24.5t-28.5 -12.5t-23 -4.5t-12.5 -0.5q-15 0 -38.5 11t-51.5 30.5t-58 46t-59 58.5q-43 -32 -87 -59t-83 -46.5t-71.5 -30
t-53.5 -10.5q-18 0 -36 6t-18 22q23 20 48 41q21 18 47 40.5t51 43.5q43 38 83.5 70t76 54.5t64 35t49.5 12.5q12 0 24 -2.5t20 -8.5q10 -29 30 -65t44.5 -73t53 -72t57.5 -62zM622 -175q0 -22 -7 -49t-19 -59q-29 -15 -60 -24t-59 -9q-38 0 -58.5 15.5t-23.5 43.5v23
q5 31 10 55t5 38v9t-1 9q61 32 116 32q47 0 72 -22t25 -62z" />
    <glyph glyph-name=".notdef.039" unicode="&#x1ec7;" horiz-adv-x="883" 
d="M545 127q99 10 177 51.5t150 111.5q19 -35 16.5 -74.5t-28.5 -71.5q-23 -29 -57.5 -54.5t-79.5 -45.5q-137 -62 -292 -62q-162 0 -251.5 70t-96.5 213q-3 71 7.5 141t33.5 136t59 126t84 111q94 112 208 169.5t239 57.5q116 0 172 -48.5t54 -143.5q0 -47 -29 -98.5
t-83 -102t-130 -95.5t-169 -78q-22 -8 -53 -21t-59 -29t-48 -34.5t-21 -36.5q-2 -34 3 -61.5t18 -45.5q30 -45 76.5 -68.5t99.5 -16.5zM385 527q-2 -10 -5 -22q-2 -11 -5.5 -26t-7.5 -34q12 25 28 43t35.5 32t42.5 26.5t49 26.5q44 24 73.5 48t48.5 47t29.5 47t17.5 48t6 46
t-9.5 38.5t-25 26t-41.5 9.5q-75 0 -135.5 -91.5t-100.5 -264.5zM983 1173q-13 -16 -28 -24.5t-28.5 -12.5t-23.5 -4.5t-13 -0.5q-15 0 -38 11t-51 30.5t-58 46t-59 58.5q-43 -32 -86.5 -59t-83 -46.5t-72 -30t-53.5 -10.5q-18 0 -35.5 6t-17.5 22q23 20 48 41
q21 18 46.5 40.5t50.5 43.5q44 38 84 70t75 54.5t64 35t50 12.5q12 0 24 -2.5t20 -8.5q10 -29 30 -65t44.5 -73t53 -72t57.5 -62zM531 -174q0 -22 -7 -49t-19 -59q-29 -15 -60 -24t-59 -9q-38 0 -58.5 15.5t-23.5 43.5v23q5 31 10 55t5 38v9t-1 9q61 32 116 32q47 0 72 -22
t25 -62z" />
    <glyph glyph-name=".notdef.103" unicode="&#x1ec8;" horiz-adv-x="571" 
d="M169 267q20 80 42.5 172t45 186.5t43 187t37.5 173.5q14 64 22.5 119.5t11.5 103.5q1 14 1.5 29.5t-3.5 29.5t-13 26t-28 20q-13 3 -18 19q-5 14 -4 17t9 8q28 17 59.5 30t62 22t59.5 13.5t53 4.5q26 0 53.5 -8t44.5 -29q17 -20 19.5 -50t-1.5 -54q-54 -231 -109 -458.5
t-101 -459.5q-11 -56 -19.5 -104t-8.5 -86q0 -37 11.5 -70.5t31.5 -64.5q0 -10 -13 -19t-33.5 -17t-46 -15t-50.5 -11.5t-46.5 -7t-33.5 -2.5q-61 0 -83 31t-22 87q0 37 8 84t19 93zM658 1906q42 0 79 -8.5t65 -24t45 -38t20 -50.5q1 -11 0 -23t-5.5 -25.5t-15 -27
t-28.5 -26.5q-9 -6 -30.5 -15t-45.5 -23h2q-27 -18 -49 -39.5t-19 -52.5q1 -11 -9 -17t-24 -9t-27.5 -3.5t-19.5 -0.5q-14 0 -31.5 7t-31.5 19t-21 28t0 35q19 21 46.5 36.5t54 32.5t47.5 38.5t27 54.5q-1 14 -6 23t-11.5 14t-13.5 7t-13 2q-8 0 -19 -4t-16 -19
q-5 -8 -24 -16.5t-63 -13.5q-18 4 -29 10.5t-17 13t-8 12t-2 8.5q-2 19 13.5 36.5t42 30.5t62 20.5t75.5 7.5z" />
    <glyph glyph-name=".notdef.036" unicode="&#x1ec9;" horiz-adv-x="545" 
d="M487 247q121 133 121 75q0 -29 -29 -99q-20 -45 -55 -87t-77 -75t-85.5 -52.5t-79.5 -19.5q-74 0 -116.5 41.5t-47.5 127.5q-2 15 -1.5 44t4.5 68t12 86t22 99q23 84 36.5 160t24.5 127q5 28 7 53.5t2 46.5q0 52 -28 92q49 18 95 28.5t90 10.5q23 0 49 -6t42 -23
q34 -35 23 -96q-5 -23 -9 -45t-12 -47q-10 -39 -21 -79t-20.5 -76.5t-17.5 -66.5t-12 -49q-6 -24 -11 -54.5t-8.5 -61.5t-6 -59t-2.5 -48q0 -14 0.5 -28t2.5 -25.5t6 -18.5t11 -7q17 0 40 19t51 45zM479 1509q42 0 79 -8.5t65 -24t45 -38t20 -50.5q1 -11 0 -23t-5.5 -25.5
t-15 -27t-28.5 -26.5q-9 -6 -30.5 -15t-45.5 -23h2q-27 -18 -49 -39.5t-19 -52.5q1 -11 -9 -17t-24 -9t-27.5 -3.5t-19.5 -0.5q-14 0 -31.5 7t-31.5 19t-21 28t0 35q19 21 46.5 36.5t54 32.5t47.5 38.5t27 54.5q-1 14 -6 23t-11.5 14t-13.5 7t-13 2q-8 0 -19 -4t-16 -19
q-5 -8 -24 -16.5t-63 -13.5q-18 4 -29 10.5t-17 13t-8 12t-2 8.5q-2 19 13.5 36.5t42 30.5t62 20.5t75.5 7.5z" />
    <glyph glyph-name=".notdef.100" unicode="&#x1eca;" horiz-adv-x="571" 
d="M169 267q20 80 42.5 172t45 186.5t43 187t37.5 173.5q14 64 22.5 119.5t11.5 103.5q1 14 1.5 29.5t-3.5 29.5t-13 26t-28 20q-13 3 -18 19q-5 14 -4 17t9 8q28 17 59.5 30t62 22t59.5 13.5t53 4.5q26 0 53.5 -8t44.5 -29q17 -20 19.5 -50t-1.5 -54q-54 -231 -109 -458.5
t-101 -459.5q-11 -56 -19.5 -104t-8.5 -86q0 -37 11.5 -70.5t31.5 -64.5q0 -10 -13 -19t-33.5 -17t-46 -15t-50.5 -11.5t-46.5 -7t-33.5 -2.5q-61 0 -83 31t-22 87q0 37 8 84t19 93zM406 -175q0 -22 -7 -49t-19 -59q-29 -15 -60 -24t-59 -9q-38 0 -58.5 15.5t-23.5 43.5v23
q5 31 10 55t5 38v9t-1 9q61 32 116 32q47 0 72 -22t25 -62z" />
    <glyph glyph-name=".notdef.034" unicode="&#x1ecb;" horiz-adv-x="545" 
d="M575 1445q43 0 64.5 -13.5t23.5 -34.5v-10t-2 -12q-3 -13 -8.5 -26t-13.5 -29t-20.5 -36.5t-30.5 -48.5q-30 -47 -48 -72.5t-35.5 -39t-40.5 -20t-63 -14.5q-29 -6 -47.5 -3t-29.5 11.5t-15.5 20.5t-4.5 23q0 20 5 48.5t11 60t10.5 64t3.5 59.5q0 7 -3.5 13t-6.5 13
q57 22 121 34t130 12zM487 247q121 133 121 75q0 -29 -29 -99q-20 -45 -55 -87t-77 -75t-85.5 -52.5t-79.5 -19.5q-74 0 -116.5 41.5t-47.5 127.5q-2 15 -1.5 44t4.5 68t12 86t22 99q23 84 36.5 160t24.5 127q5 28 7 53.5t2 46.5q0 52 -28 92q49 18 95 28.5t90 10.5
q23 0 49 -6t42 -23q34 -35 23 -96q-5 -23 -9 -45t-12 -47q-10 -39 -21 -79t-20.5 -76.5t-17.5 -66.5t-12 -49q-6 -24 -11 -54.5t-8.5 -61.5t-6 -59t-2.5 -48q0 -14 0.5 -28t2.5 -25.5t6 -18.5t11 -7q17 0 40 19t51 45zM369 -174q0 -22 -7 -49t-19 -59q-29 -15 -60 -24
t-59 -9q-38 0 -58.5 15.5t-23.5 43.5v23q5 31 10 55t5 38v9t-1 9q61 32 116 32q47 0 72 -22t25 -62z" />
    <glyph glyph-name=".notdef.095" unicode="&#x1ecc;" horiz-adv-x="1284" 
d="M929 1449q102 0 179 -31.5t129 -92t78.5 -148.5t26.5 -201q0 -117 -27.5 -238t-78.5 -234.5t-123 -213t-161 -174t-192.5 -117.5t-217.5 -43q-203 0 -304 122t-101 349q0 121 26.5 243.5t76 236t120.5 212.5t159 172.5t191.5 115.5t218.5 42zM626 111q72 11 132.5 61
t109.5 124t86 165.5t62 185.5t37.5 183.5t12.5 159.5q0 66 -11.5 121.5t-36.5 96t-64 63.5t-94 23q-57 0 -111.5 -39t-103.5 -104.5t-89.5 -151t-70.5 -178.5t-46.5 -188t-16.5 -178q0 -78 11 -144.5t35 -114t63 -71t95 -14.5zM627 -175q0 -22 -7 -49t-19 -59
q-29 -15 -60 -24t-59 -9q-38 0 -58.5 15.5t-23.5 43.5v23q5 31 10 55t5 38v9t-1 9q61 32 116 32q47 0 72 -22t25 -62z" />
    <glyph glyph-name=".notdef.029" unicode="&#x1ecd;" horiz-adv-x="986" 
d="M269 800q86 96 192 151t227 55q75 0 137 -22.5t106.5 -64.5t69 -103t24.5 -137q0 -87 -21.5 -172t-60.5 -162.5t-93.5 -144t-121 -115t-143 -76t-158.5 -27.5q-76 0 -138 23.5t-106.5 67.5t-68.5 107.5t-24 143.5q0 135 45.5 254t133.5 222zM751 679q0 40 -6 75t-20 61
t-37 40.5t-56 14.5q-41 0 -77 -27t-66 -72.5t-54 -104t-40.5 -121.5t-25 -125.5t-8.5 -115.5q0 -41 6.5 -75.5t21 -59.5t38 -39t56.5 -14q40 0 76 27t65.5 71.5t53 103t40 121t25 125t8.5 115.5zM518 -174q0 -22 -7 -49t-19 -59q-29 -15 -60 -24t-59 -9q-38 0 -58.5 15.5
t-23.5 43.5v23q5 31 10 55t5 38v9t-1 9q61 32 116 32q47 0 72 -22t25 -62z" />
    <glyph glyph-name=".notdef.097" unicode="&#x1ece;" horiz-adv-x="1284" 
d="M929 1449q102 0 179 -31.5t129 -92t78.5 -148.5t26.5 -201q0 -117 -27.5 -238t-78.5 -234.5t-123 -213t-161 -174t-192.5 -117.5t-217.5 -43q-203 0 -304 122t-101 349q0 121 26.5 243.5t76 236t120.5 212.5t159 172.5t191.5 115.5t218.5 42zM626 111q72 11 132.5 61
t109.5 124t86 165.5t62 185.5t37.5 183.5t12.5 159.5q0 66 -11.5 121.5t-36.5 96t-64 63.5t-94 23q-57 0 -111.5 -39t-103.5 -104.5t-89.5 -151t-70.5 -178.5t-46.5 -188t-16.5 -178q0 -78 11 -144.5t35 -114t63 -71t95 -14.5zM994 1906q42 0 79 -8.5t65 -24t45 -38
t20 -50.5q1 -11 0 -23t-5.5 -25.5t-15 -27t-28.5 -26.5q-9 -6 -30.5 -15t-45.5 -23h2q-27 -18 -49 -39.5t-19 -52.5q1 -11 -9 -17t-24 -9t-27.5 -3.5t-19.5 -0.5q-14 0 -31.5 7t-31.5 19t-21 28t0 35q19 21 46.5 36.5t54 32.5t47.5 38.5t27 54.5q-1 14 -6 23t-11.5 14
t-13.5 7t-13 2q-8 0 -19 -4t-16 -19q-5 -8 -24 -16.5t-63 -13.5q-18 4 -29 10.5t-17 13t-8 12t-2 8.5q-2 19 13.5 36.5t42 30.5t62 20.5t75.5 7.5z" />
    <glyph glyph-name=".notdef.031" unicode="&#x1ecf;" horiz-adv-x="986" 
d="M269 800q86 96 192 151t227 55q75 0 137 -22.5t106.5 -64.5t69 -103t24.5 -137q0 -87 -21.5 -172t-60.5 -162.5t-93.5 -144t-121 -115t-143 -76t-158.5 -27.5q-76 0 -138 23.5t-106.5 67.5t-68.5 107.5t-24 143.5q0 135 45.5 254t133.5 222zM751 679q0 40 -6 75t-20 61
t-37 40.5t-56 14.5q-41 0 -77 -27t-66 -72.5t-54 -104t-40.5 -121.5t-25 -125.5t-8.5 -115.5q0 -41 6.5 -75.5t21 -59.5t38 -39t56.5 -14q40 0 76 27t65.5 71.5t53 103t40 121t25 125t8.5 115.5zM770 1509q42 0 79 -8.5t65 -24t45 -38t20 -50.5q1 -11 0 -23t-5.5 -25.5
t-15 -27t-28.5 -26.5q-9 -6 -30.5 -15t-45.5 -23h2q-27 -18 -49 -39.5t-19 -52.5q1 -11 -9 -17t-24 -9t-27.5 -3.5t-19.5 -0.5q-14 0 -31.5 7t-31.5 19t-21 28t0 35q19 21 46.5 36.5t54 32.5t47.5 38.5t27 54.5q-1 14 -6 23t-11.5 14t-13.5 7t-13 2q-8 0 -19 -4t-16 -19
q-5 -8 -24 -16.5t-63 -13.5q-18 4 -29 10.5t-17 13t-8 12t-2 8.5q-2 19 13.5 36.5t42 30.5t62 20.5t75.5 7.5z" />
    <glyph glyph-name=".notdef.092" unicode="&#x1ed0;" horiz-adv-x="1284" 
d="M929 1449q102 0 179 -31.5t129 -92t78.5 -148.5t26.5 -201q0 -117 -27.5 -238t-78.5 -234.5t-123 -213t-161 -174t-192.5 -117.5t-217.5 -43q-203 0 -304 122t-101 349q0 121 26.5 243.5t76 236t120.5 212.5t159 172.5t191.5 115.5t218.5 42zM626 111q72 11 132.5 61
t109.5 124t86 165.5t62 185.5t37.5 183.5t12.5 159.5q0 66 -11.5 121.5t-36.5 96t-64 63.5t-94 23q-57 0 -111.5 -39t-103.5 -104.5t-89.5 -151t-70.5 -178.5t-46.5 -188t-16.5 -178q0 -78 11 -144.5t35 -114t63 -71t95 -14.5zM1280 1564q-13 -16 -28 -24.5t-28.5 -12.5
t-23 -4.5t-12.5 -0.5q-15 0 -38.5 11t-51.5 30.5t-58 46t-59 58.5q-43 -32 -87 -59t-83 -46.5t-71.5 -30t-53.5 -10.5q-18 0 -36 6t-18 22q23 20 48 41q21 18 47 40.5t51 43.5q43 38 83.5 70t76 54.5t64 35t49.5 12.5q12 0 24 -2.5t20 -8.5q10 -29 30 -65t44.5 -73t53 -72
t57.5 -62zM1597 1826q-28 -16 -65 -32t-78 -30.5t-85 -27t-87 -19.5q-5 -2 -18 -2q-6 0 -16 2.5t-19.5 7t-16 11t-6.5 13.5q0 9 12 18q23 15 50 33t56 39q48 37 90 79t71 86q6 9 9 16t8 12h27q32 0 58 -2t45 -10q38 -16 57.5 -38t19.5 -43q0 -13 -5 -19q-16 -51 -107 -94z
" />
    <glyph glyph-name=".notdef.026" unicode="&#x1ed1;" horiz-adv-x="986" 
d="M269 800q86 96 192 151t227 55q75 0 137 -22.5t106.5 -64.5t69 -103t24.5 -137q0 -87 -21.5 -172t-60.5 -162.5t-93.5 -144t-121 -115t-143 -76t-158.5 -27.5q-76 0 -138 23.5t-106.5 67.5t-68.5 107.5t-24 143.5q0 135 45.5 254t133.5 222zM751 679q0 40 -6 75t-20 61
t-37 40.5t-56 14.5q-41 0 -77 -27t-66 -72.5t-54 -104t-40.5 -121.5t-25 -125.5t-8.5 -115.5q0 -41 6.5 -75.5t21 -59.5t38 -39t56.5 -14q40 0 76 27t65.5 71.5t53 103t40 121t25 125t8.5 115.5zM1015 1173q-12 -16 -27 -24.5t-28.5 -12.5t-23.5 -4.5t-13 -0.5q-15 0 -38 11
t-50.5 30.5t-58 46t-59.5 58.5q-43 -32 -86.5 -59t-83 -46.5t-72 -30t-53.5 -10.5q-18 0 -35.5 6t-17.5 22q23 20 48 41q21 18 46.5 40.5t50.5 43.5q43 38 83.5 70t76 54.5t64 35t49.5 12.5q28 0 45 -11q10 -29 29.5 -65t44 -73t53 -72t56.5 -62zM930 1368q0 11 12 19
q51 32 91 64t74 64t62.5 66t56.5 71q106 0 157 -26t51 -68q0 -26 -29 -56.5t-85 -56.5q-28 -16 -64.5 -32t-77.5 -30.5t-84.5 -26.5t-86.5 -20q-11 -2 -24.5 -0.5t-25 6t-19.5 11.5t-8 15z" />
    <glyph glyph-name=".notdef.093" unicode="&#x1ed2;" horiz-adv-x="1284" 
d="M929 1449q102 0 179 -31.5t129 -92t78.5 -148.5t26.5 -201q0 -117 -27.5 -238t-78.5 -234.5t-123 -213t-161 -174t-192.5 -117.5t-217.5 -43q-203 0 -304 122t-101 349q0 121 26.5 243.5t76 236t120.5 212.5t159 172.5t191.5 115.5t218.5 42zM626 111q72 11 132.5 61
t109.5 124t86 165.5t62 185.5t37.5 183.5t12.5 159.5q0 66 -11.5 121.5t-36.5 96t-64 63.5t-94 23q-57 0 -111.5 -39t-103.5 -104.5t-89.5 -151t-70.5 -178.5t-46.5 -188t-16.5 -178q0 -78 11 -144.5t35 -114t63 -71t95 -14.5zM1280 1564q-13 -16 -28 -24.5t-28.5 -12.5
t-23 -4.5t-12.5 -0.5q-15 0 -38.5 11t-51.5 30.5t-58 46t-59 58.5q-43 -32 -87 -59t-83 -46.5t-71.5 -30t-53.5 -10.5q-18 0 -36 6t-18 22q23 20 48 41q21 18 47 40.5t51 43.5q43 38 83.5 70t76 54.5t64 35t49.5 12.5q12 0 24 -2.5t20 -8.5q10 -29 30 -65t44.5 -73t53 -72
t57.5 -62zM1607 1749q0 -8 -8.5 -14.5t-20.5 -11t-26 -6t-24 0.5q-84 16 -159 42.5t-131 57t-89 62.5t-33 59q0 18 18.5 38t49 36t69.5 23.5t81 1.5q18 -26 35 -52t35.5 -50.5t40.5 -49t49 -47.5q15 -12 35 -25t37 -26t29 -23t12 -16z" />
    <glyph glyph-name=".notdef.027" unicode="&#x1ed3;" horiz-adv-x="986" 
d="M269 800q86 96 192 151t227 55q75 0 137 -22.5t106.5 -64.5t69 -103t24.5 -137q0 -87 -21.5 -172t-60.5 -162.5t-93.5 -144t-121 -115t-143 -76t-158.5 -27.5q-76 0 -138 23.5t-106.5 67.5t-68.5 107.5t-24 143.5q0 135 45.5 254t133.5 222zM751 679q0 40 -6 75t-20 61
t-37 40.5t-56 14.5q-41 0 -77 -27t-66 -72.5t-54 -104t-40.5 -121.5t-25 -125.5t-8.5 -115.5q0 -41 6.5 -75.5t21 -59.5t38 -39t56.5 -14q40 0 76 27t65.5 71.5t53 103t40 121t25 125t8.5 115.5zM1015 1173q-12 -16 -27 -24.5t-28.5 -12.5t-23.5 -4.5t-13 -0.5q-15 0 -38 11
t-50.5 30.5t-58 46t-59.5 58.5q-43 -32 -86.5 -59t-83 -46.5t-72 -30t-53.5 -10.5q-18 0 -35.5 6t-17.5 22q23 20 48 41q21 18 46.5 40.5t50.5 43.5q43 38 83.5 70t76 54.5t64 35t49.5 12.5q28 0 45 -11q10 -29 29.5 -65t44 -73t53 -72t56.5 -62zM1322 1371q0 -8 -8.5 -15
t-20.5 -11.5t-25.5 -6t-24.5 0.5q-84 17 -158.5 43.5t-130.5 57t-89 62t-33 59.5q0 18 18.5 38t49 36t69.5 24t81 2q18 -26 34.5 -52t35.5 -51t40.5 -49.5t49.5 -46.5q15 -12 34.5 -25.5t36.5 -26.5t29 -23t12 -16z" />
    </font>
</defs>
</svg>
